Поиск

(Vocal Jazz) [CD] Kate McGarry with Gary Versace & Keith Ganz - The Subject Tonight Is Love - 2018, FLAC (tracks+.cue), lossless

(Vocal Jazz) [CD] Kate McGarry with Gary Versace & Keith Ganz - The Subject Tonight Is Love - 2018, FLAC (tracks+.cue), lossless
Треклист:
KATE MCGARRY '' KEITH GANZ '' GARY VERSACE
THE ' SUBJECT ' TONIGHT ' IS ' LOVE
Жанр: Vocal Jazz
Страна-производитель диска: USA
Год издания: 2018
Издатель (лейбл): Binxtown Records
Аудиокодек: FLAC (*.flac)
Тип рипа: tracks+.cue
Битрейт аудио: lossless
Продолжительность: 60:39
Источник (релизер): спасибо MRmarket
Наличие сканов: нет
Треклист:
01. Prologue: The Subject Tonight Is Love
02. Secret Love
03. Climb Down / Whiskey You're The Devil
04. Gone With The Wind
05. Fair Weather
06. Playing Palhaço
07. Losing Strategy, #4
08. My Funny Valentine
09. Mr. Sparkle / What A Difference A Day Made
10. She Always Will / The River
11. Indian Summer
12. Epilogue: All You Need Is Love
 
Лог создания рипа
X Lossless Decoder version 20161007 (149.3)
XLD extraction logfile from 2018-02-05 18:54:37 -0500
Kate McGarry / The Subject Tonight Is Love
Used drive : HL-DT-ST DVDRAM GP65NB60 (revision PB00)
Media type : Pressed CD
Ripper mode : XLD Secure Ripper
Disable audio cache : OK for the drive with a cache less than 1375KiB
Make use of C2 pointers : NO
Read offset correction : 6
Max retry count : 100
Gap status : Analyzed, Appended (except HTOA)
TOC of the extracted CD
Track | Start | Length | Start sector | End sector
---------------------------------------------------------
1 | 00:00:00 | 01:16:31 | 0 | 5730
2 | 01:16:31 | 05:04:17 | 5731 | 28547
3 | 06:20:48 | 06:46:53 | 28548 | 59050
4 | 13:07:26 | 04:19:21 | 59051 | 78496
5 | 17:26:47 | 08:01:51 | 78497 | 114622
6 | 25:28:23 | 04:46:38 | 114623 | 136110
7 | 30:14:61 | 03:00:59 | 136111 | 149669
8 | 33:15:45 | 06:23:26 | 149670 | 178420
9 | 39:38:71 | 05:09:38 | 178421 | 201633
10 | 44:48:34 | 07:43:37 | 201634 | 236395
11 | 52:31:71 | 06:57:22 | 236396 | 267692
12 | 59:29:18 | 01:40:30 | 267693 | 275222
AccurateRip Summary
Disc not found in AccurateRip DB.
All Tracks
Album gain : -4.28 dB
Peak : 1.000000
Statistics
Read error : 0
Jitter error (maybe fixed) : 0
Retry sector count : 0
Damaged sector count : 0
Track 01
Filename : /Users/rips/ Kate McGarry - The Subject Tonight Is Love (2018) [FLAC]/01 Prologue: The Subject Tonight Is Love.flac
Pre-gap length : 00:02:00
Track gain : -0.61 dB
Peak : 0.634308
CRC32 hash (test run) : 3661CD62
CRC32 hash : 3661CD62
CRC32 hash (skip zero) : 76A99C57
AccurateRip v1 signature : 575795BB
AccurateRip v2 signature : 8E7B47C0
->Track not present in AccurateRip database.
Statistics
Read error : 0
Jitter error (maybe fixed) : 0
Retry sector count : 0
Damaged sector count : 0
Track 02
Filename : /Users/rips/ Kate McGarry - The Subject Tonight Is Love (2018) [FLAC]/02 Secret Love.flac
Track gain : -2.94 dB
Peak : 0.995911
CRC32 hash (test run) : 6899EC8E
CRC32 hash : 6899EC8E
CRC32 hash (skip zero) : F0FE2B9C
AccurateRip v1 signature : CA0F1FEA
AccurateRip v2 signature : B7D29A40
->Track not present in AccurateRip database.
Statistics
Read error : 0
Jitter error (maybe fixed) : 0
Retry sector count : 0
Damaged sector count : 0
Track 03
Filename : /Users/rips/ Kate McGarry - The Subject Tonight Is Love (2018) [FLAC]/03 Climb Down / Whiskey You're the Devil.flac
Pre-gap length : 00:03:02
Track gain : -4.32 dB
Peak : 0.996216
CRC32 hash (test run) : 2D590D1A
CRC32 hash : 2D590D1A
CRC32 hash (skip zero) : E4BEDE1D
AccurateRip v1 signature : C6B5F01D
AccurateRip v2 signature : 8E9286FE
->Track not present in AccurateRip database.
Statistics
Read error : 0
Jitter error (maybe fixed) : 0
Retry sector count : 0
Damaged sector count : 0
Track 04
Filename : /Users/rips/ Kate McGarry - The Subject Tonight Is Love (2018) [FLAC]/04 Gone with the Wind.flac
Pre-gap length : 00:01:72
Track gain : -0.86 dB
Peak : 0.973083
CRC32 hash (test run) : FBBE0718
CRC32 hash : FBBE0718
CRC32 hash (skip zero) : 348698D8
AccurateRip v1 signature : 942AE24B
AccurateRip v2 signature : 60529142
->Track not present in AccurateRip database.
Statistics
Read error : 0
Jitter error (maybe fixed) : 0
Retry sector count : 0
Damaged sector count : 0
Track 05
Filename : /Users/rips/ Kate McGarry - The Subject Tonight Is Love (2018) [FLAC]/05 Fair Weather.flac
Pre-gap length : 00:02:72
Track gain : -4.54 dB
Peak : 0.946259
CRC32 hash (test run) : 67855114
CRC32 hash : 67855114
CRC32 hash (skip zero) : 057B3EFE
AccurateRip v1 signature : 91129B67
AccurateRip v2 signature : BAD40E7C
->Track not present in AccurateRip database.
Statistics
Read error : 0
Jitter error (maybe fixed) : 0
Retry sector count : 0
Damaged sector count : 0
Track 06
Filename : /Users/rips/ Kate McGarry - The Subject Tonight Is Love (2018) [FLAC]/06 Playing Palhaço .flac
Pre-gap length : 00:03:11
Track gain : -3.50 dB
Peak : 1.000000
CRC32 hash (test run) : 8D38D3F7
CRC32 hash : 8D38D3F7
CRC32 hash (skip zero) : 9F173BE5
AccurateRip v1 signature : C2643F76
AccurateRip v2 signature : 1C0DCCC2
->Track not present in AccurateRip database.
Statistics
Read error : 0
Jitter error (maybe fixed) : 0
Retry sector count : 0
Damaged sector count : 0
Track 07
Filename : /Users/rips/ Kate McGarry - The Subject Tonight Is Love (2018) [FLAC]/07 Losing Strategy, #4.flac
Pre-gap length : 00:03:03
Track gain : -2.17 dB
Peak : 0.945953
CRC32 hash (test run) : 8822E584
CRC32 hash : 8822E584
CRC32 hash (skip zero) : C551FB95
AccurateRip v1 signature : AEB6BCCF
AccurateRip v2 signature : 1A0C5B05
->Track not present in AccurateRip database.
Statistics
Read error : 0
Jitter error (maybe fixed) : 0
Retry sector count : 0
Damaged sector count : 0
Track 08
Filename : /Users/rips/ Kate McGarry - The Subject Tonight Is Love (2018) [FLAC]/08 My Funny Valentine.flac
Pre-gap length : 00:03:13
Track gain : -6.31 dB
Peak : 0.908905
CRC32 hash (test run) : 027D7DE5
CRC32 hash : 027D7DE5
CRC32 hash (skip zero) : B5A13859
AccurateRip v1 signature : 60D7603C
AccurateRip v2 signature : 03B495F4
->Track not present in AccurateRip database.
Statistics
Read error : 0
Jitter error (maybe fixed) : 0
Retry sector count : 0
Damaged sector count : 0
Track 09
Filename : /Users/rips/ Kate McGarry - The Subject Tonight Is Love (2018) [FLAC]/09 Mr. Sparkle / What a Difference a Day Made.flac
Pre-gap length : 00:03:12
Track gain : -3.32 dB
Peak : 0.976624
CRC32 hash (test run) : 919234C7
CRC32 hash : 919234C7
CRC32 hash (skip zero) : 8830D630
AccurateRip v1 signature : 61C63431
AccurateRip v2 signature : E7B729BE
->Track not present in AccurateRip database.
Statistics
Read error : 0
Jitter error (maybe fixed) : 0
Retry sector count : 0
Damaged sector count : 0
Track 10
Filename : /Users/rips/ Kate McGarry - The Subject Tonight Is Love (2018) [FLAC]/10 She Always Will / The River.flac
Pre-gap length : 00:03:43
Track gain : -5.72 dB
Peak : 0.941986
CRC32 hash (test run) : B066C9F0
CRC32 hash : B066C9F0
CRC32 hash (skip zero) : 6FE1F3E3
AccurateRip v1 signature : A8D22A70
AccurateRip v2 signature : 47AC5446
->Track not present in AccurateRip database.
Statistics
Read error : 0
Jitter error (maybe fixed) : 0
Retry sector count : 0
Damaged sector count : 0
Track 11
Filename : /Users/rips/ Kate McGarry - The Subject Tonight Is Love (2018) [FLAC]/11 Indian Summer.flac
Pre-gap length : 00:03:57
Track gain : -1.78 dB
Peak : 0.974548
CRC32 hash (test run) : 5528F76A
CRC32 hash : 5528F76A
CRC32 hash (skip zero) : 85499CCA
AccurateRip v1 signature : B05848B6
AccurateRip v2 signature : 54B7389F
->Track not present in AccurateRip database.
Statistics
Read error : 0
Jitter error (maybe fixed) : 0
Retry sector count : 0
Damaged sector count : 0
Track 12
Filename : /Users/rips/ Kate McGarry - The Subject Tonight Is Love (2018) [FLAC]/12 Epilogue: All You Need Is Love.flac
Pre-gap length : 00:02:61
Track gain : -4.98 dB
Peak : 1.000000
CRC32 hash (test run) : 57E3D1E4
CRC32 hash : 57E3D1E4
CRC32 hash (skip zero) : 9FA05DB6
AccurateRip v1 signature : C5284BB8
AccurateRip v2 signature : 6DD44303
->Track not present in AccurateRip database.
Statistics
Read error : 0
Jitter error (maybe fixed) : 0
Retry sector count : 0
Damaged sector count : 0
No errors occurred
End of status report
-----BEGIN XLD SIGNATURE-----
Rsu0Q5A4WK1pyRQP.giqxYHnEdbwYBG2ynPkqU.j9BWIR6aCQv3Z4DPX0XZeOcNV3kKsQ94SiJjzjBZLTV97duW0KnhjYTlEGIMO4LW
-----END XLD SIGNATURE-----
 
Содержание индексной карты (.CUE)
TITLE "The Subject Tonight Is Love"
PERFORMER " Kate McGarry "
REM GENRE "Jazz"
REM DATE "2018"
REM DISCID B00E550C
REM REPLAYGAIN_ALBUM_GAIN -4.28 dB
REM REPLAYGAIN_ALBUM_PEAK 1.000000
FILE "01 Prologue - The Subject Tonight Is Love.flac" WAVE
TRACK 01 AUDIO
TITLE "Prologue - The Subject Tonight Is Love"
ISRC QZALH1700001
FLAGS DCP
REM REPLAYGAIN_TRACK_GAIN -0.61 dB
REM REPLAYGAIN_TRACK_PEAK 0.634308
INDEX 01 00:00:00
FILE "02 Secret Love.flac" WAVE
TRACK 02 AUDIO
TITLE "Secret Love"
ISRC QZALH1700002
FLAGS DCP
REM REPLAYGAIN_TRACK_GAIN -2.94 dB
REM REPLAYGAIN_TRACK_PEAK 0.995911
INDEX 01 00:00:00
TRACK 03 AUDIO
TITLE "Climb Down - Whiskey You're the Devil"
ISRC QZALH1700003
FLAGS DCP
REM REPLAYGAIN_TRACK_GAIN -4.32 dB
REM REPLAYGAIN_TRACK_PEAK 0.996216
INDEX 00 05:01:15
FILE "03 Climb Down - Whiskey You're the Devil.flac" WAVE
INDEX 01 00:00:00
TRACK 04 AUDIO
TITLE "Gone with the Wind"
ISRC QZALH1700004
FLAGS DCP
REM REPLAYGAIN_TRACK_GAIN -0.86 dB
REM REPLAYGAIN_TRACK_PEAK 0.973083
INDEX 00 06:44:56
FILE "04 Gone with the Wind.flac" WAVE
INDEX 01 00:00:00
TRACK 05 AUDIO
TITLE "Fair Weather"
ISRC QZALH1700005
FLAGS DCP
REM REPLAYGAIN_TRACK_GAIN -4.54 dB
REM REPLAYGAIN_TRACK_PEAK 0.946259
INDEX 00 04:16:24
FILE "05 Fair Weather.flac" WAVE
INDEX 01 00:00:00
TRACK 06 AUDIO
TITLE "Playing Palhaco"
ISRC QZALH1700006
FLAGS DCP
REM REPLAYGAIN_TRACK_GAIN -3.50 dB
REM REPLAYGAIN_TRACK_PEAK 1.000000
INDEX 00 07:58:40
FILE "06 Playing Palhaco.flac" WAVE
INDEX 01 00:00:00
TRACK 07 AUDIO
TITLE "Losing Strategy, #4"
ISRC QZALH1700007
FLAGS DCP
REM REPLAYGAIN_TRACK_GAIN -2.17 dB
REM REPLAYGAIN_TRACK_PEAK 0.945953
INDEX 00 04:43:35
FILE "07 Losing Strategy, #4.flac" WAVE
INDEX 01 00:00:00
TRACK 08 AUDIO
TITLE "My Funny Valentine"
ISRC QZALH1700008
FLAGS DCP
REM REPLAYGAIN_TRACK_GAIN -6.31 dB
REM REPLAYGAIN_TRACK_PEAK 0.908905
INDEX 00 02:57:46
FILE "08 My Funny Valentine.flac" WAVE
INDEX 01 00:00:00
TRACK 09 AUDIO
TITLE "Mr. Sparkle - What a Difference a Day Made"
ISRC QZALH1700009
FLAGS DCP
REM REPLAYGAIN_TRACK_GAIN -3.32 dB
REM REPLAYGAIN_TRACK_PEAK 0.976624
INDEX 00 06:20:14
FILE "09 Mr. Sparkle - What a Difference a Day Made.flac" WAVE
INDEX 01 00:00:00
TRACK 10 AUDIO
TITLE "She Always Will - The River"
ISRC QZALH1700010
FLAGS DCP
REM REPLAYGAIN_TRACK_GAIN -5.72 dB
REM REPLAYGAIN_TRACK_PEAK 0.941986
INDEX 00 05:05:70
FILE "10 She Always Will - The River.flac" WAVE
INDEX 01 00:00:00
TRACK 11 AUDIO
TITLE "Indian Summer"
ISRC QZALH1700011
FLAGS DCP
REM REPLAYGAIN_TRACK_GAIN -1.78 dB
REM REPLAYGAIN_TRACK_PEAK 0.974548
INDEX 00 07:39:55
FILE "11 Indian Summer.flac" WAVE
INDEX 01 00:00:00
TRACK 12 AUDIO
TITLE "Epilogue - All You Need Is Love"
ISRC QZALH1700012
FLAGS DCP
REM REPLAYGAIN_TRACK_GAIN -4.98 dB
REM REPLAYGAIN_TRACK_PEAK 1.000000
INDEX 00 06:54:36
FILE "12 Epilogue - All You Need Is Love.flac" WAVE
INDEX 01 00:00:00
 
Об альбоме

The ancient Greeks spoke of love's many forms, codifying and distilling the essence of every one in detailed thought and language. Each of those documented variants rightly differs from the others, yet the keen mind can certainly discern that all of them basically stem from the same roots: connectivity and understanding. In something of a musical parallel, this outing presents as an exploration, cataloguing, and summation of love in many states. While different aspects of the topic at hand are examined within each track, all are in agreement in their adoption of its foundational pillars.
The trio of vocalist Kate McGarry, guitarist Keith Ganz, and multi-instrumentalist Gary Versace is ideally suited for these investigations of the heart, telescoping each song's core value(s) while also expanding on their meaning. In doing so, this tightknit group proves that it's as perceptive as they come. McGarry may serve as the primary focal point, but this album remains a statement of artistic fellowship between all three of these artists.
The title track—a recitation of a concise work from 14th century Persian Poet Hafiz—serves as a brief scene-setter of a prologue, but the first proper number comes in the form of "Secret Love." This reflection on clandestine bonding proves to be one of the standout tracks on the album, evolving into a soul-searching statement on finding one's inner passion(s). Opening with hush-hush ideals before easing into a buoyant zone featuring a joyous guitar solo from Ganz, it hits every mark its meant to while shining a light on a few that were heretofore unseen. McGarry follows that up by calling to her Irish ancestors on "Climb Down," a slow, spare, and bluesy evocation that moves through humid air. That five-and-a-half minute work stands firmly on its own, yet it resonates on a deeper level when it segues into an Irish folk song—"Whiskey You're The Devil"—with guest Obed Calvaire's martial snare drum calling in the distance.
Those first three numbers make it clear that these simpatico spirits don't deem any single source sufficient for uncovering or expressing love's magic and mysteries; the material that follows, likewise, speaks to varied origins and vantage points. "Gone With The Wind" touches on elegiac sentiments while countering them with suggestions of sunny swing and a light-and-loose departure, Egberto Gismonti's "Playing Palhaço" presents new lyrics from Jo Lawry and deals with love's reality apart from its appearance, "My Funny Valentine" is given a glistening facelift through Ganz's reharmonization, and McGarry's "Losing Strategy # 4," benefitting from Versace's coloristic contributions, investigates the topic of retribution and damaged love in the most heartbreaking of tones.
This album is full of emotional ups and downs, serving as a true reflection of life's rollercoaster, but the ever optimistic epilogue—a brief stroll through "All You Need Is Love" graced by Ron Miles' horn—closes things out with a welcome dose of optimism. That exit is a lesson to the masses in these troubled times about how to move forward, and this album is a gift to us all from a trio with something real and true to express.
(Dan Bilawsky, allaboutjazz.com)
 
Состав

Kate McGarry - vocals
Keith Ganz - acoustic & electric guitar,
acoustic bass guitar
Gary Versace - piano, keyboard,
organ, accordion
guests
Obed Calvaire - drums (3)
Ron Miles - trumpet (12)
Скачивание доступно после регистрации!!
Приватный:
Нет (DHT включён)
Размер:
285.22 Мб (299,070,661 байт) » файлов: 17
Участники:
0 раздают, 0 качают (0 участников всего)
Внешние участники:
10 раздают, 3 качают (13 участников всего) [ Обновить ]
07:27
8
Нет комментариев. Ваш будет первым!