Поиск

(Vocal Jazz) [CD] Janice Lakers & Debby Poryes - The Rainbow Lady (1985) - 2016 {CDSOL-6433}, FLAC (tracks), lossless

(Vocal Jazz) [CD] Janice Lakers & Debby Poryes - The Rainbow Lady (1985) - 2016 {CDSOL-6433}, FLAC (tracks), lossless
Треклист:
Janice Lakers & Debby Poryes - The Rainbow Lady (1985) Жанр: Vocal Jazz
Носитель: CD
Страна-производитель диска (релиза): Japan
Год издания: 2016
Издатель (лейбл): Limetree/Timeless Records/Solid Records Japan/Ultra-Vibe
Номер по каталогу: CDSOL-6433
Аудиокодек: FLAC (*.flac)
Тип рипа: tracks
Битрейт аудио: lossless
Продолжительность: 34:54
Источник (релизер): ruskaval
Наличие сканов в содержимом раздачи: да
Треклист:
01. The Rainbow Lady (3:58)
02. So Sorry, S'il Vous Plait (2:42)
03. Body And Soul (6:25)
04. In Your Own Sweet Way (3:30)
05. Like A Lover (3:55)
06. Waltz For Debby (For Anne And Kay) (5:16)
07. Moondance (5:25)
08. Falling Grace (3:43)
Personnel:
Janice Lakers - vocals
Debbie Poryes - piano
Frans Tunderman - bass
Amoud Gerritse - drums
Rec.: Studio 44, Monster, Holland, October 26 & 27, 1985.
 
 
Об альбоме
Reissue with the latest remastering and the original cover artwork. Comes with a description written in Japanese. Janice Lakers is a singer we only know from this one album – but she's a hip vocalist with a very compelling style – one that's very much in the best mode of some of the cooler American jazz singers of the late 70s! The song choices are great – some hipper jazz standards – and she's got a way of opening up with the lyrics that's far different than older vocal modes of the 50s – instead nearer to the territory of artists like Janet Lawson or Judy Roberts. Backing is by a hip trio with Debbie Poryes on piano – who really open up with their own sense of presence on the record, too – and titles include "Waltz For Debby", "Like A Lover", "Falling Grace", "Rainbow Lady", "In Your Own Sweet Way", and a nicely grooving take on "Moondance".

 
Лог создания рипа
Exact Audio Copy V1.3 from 2. September 2016
EAC extraction logfile from 26. June 2017, 22:31
Janice Lakers & Debby Poryes / The Rainbow Lady
Used drive : TSSTcorpCDDVDW SE-208DB Adapter: 1 ID: 1
Read mode : Secure
Utilize accurate stream : Yes
Defeat audio cache : Yes
Make use of C2 pointers : No
Read offset correction : 6
Overread into Lead-In and Lead-Out : No
Fill up missing offset samples with silence : Yes
Delete leading and trailing silent blocks : No
Null samples used in CRC calculations : Yes
Used interface : Native Win32 interface for Win NT & 2000
Gap handling : Appended to previous track
Used output format : User Defined Encoder
Selected bitrate : 1024 kBit/s
Quality : High
Add ID3 tag : No
Command line compressor : C:\Program Files (x86)\FLAC Frontend\tools\flac.exe
Additional command line options : -8 -V -T "ARTIST=%artist%" -T "TITLE=%title%" -T "ALBUM=%albumtitle%" -T "DATE=%year%" -T "TRACKNUMBER=%tracknr%" -T "TOTALTRACKS=%numtracks%" -T "GENRE=%genre%" -T "ALBUMARTIST=%albumartist%" -T "ALBUM ARTIST=%albumartist%" -T "COMMENT=EAC Secure Mode, Test & Copy, AccurateRip, FLAC -8" %source%
TOC of the extracted CD
Track | Start | Length | Start sector | End sector
---------------------------------------------------------
1 | 0:00.00 | 3:57.46 | 0 | 17820
2 | 3:57.46 | 2:42.18 | 17821 | 29988
3 | 6:39.64 | 6:25.15 | 29989 | 58878
4 | 13:05.04 | 3:29.56 | 58879 | 74609
5 | 16:34.60 | 3:55.37 | 74610 | 92271
6 | 20:30.22 | 5:16.03 | 92272 | 115974
7 | 25:46.25 | 5:24.61 | 115975 | 140335
8 | 31:11.11 | 3:42.61 | 140336 | 157046
Track 1
Filename D:\_EAC\Janice Lakers & Debby Poryes - The Rainbow Lady (1985) [FLAC] {CDSOL-6433}\01 - The Rainbow Lady.wav
Pre-gap length 0:00:02.00
Peak level 94.5 %
Extraction speed 2.5 X
Track quality 100.0 %
Test CRC EE5AD4F7
Copy CRC EE5AD4F7
Track not present in AccurateRip database
Copy OK
Track 2
Filename D:\_EAC\Janice Lakers & Debby Poryes - The Rainbow Lady (1985) [FLAC] {CDSOL-6433}\02 - So Sorry, S'il Vous Plait.wav
Peak level 93.0 %
Extraction speed 2.6 X
Track quality 100.0 %
Test CRC 19E17283
Copy CRC 19E17283
Track not present in AccurateRip database
Copy OK
Track 3
Filename D:\_EAC\Janice Lakers & Debby Poryes - The Rainbow Lady (1985) [FLAC] {CDSOL-6433}\03 - Body And Soul.wav
Peak level 77.1 %
Extraction speed 3.3 X
Track quality 100.0 %
Test CRC 689ECB87
Copy CRC 689ECB87
Track not present in AccurateRip database
Copy OK
Track 4
Filename D:\_EAC\Janice Lakers & Debby Poryes - The Rainbow Lady (1985) [FLAC] {CDSOL-6433}\04 - In Your Own Sweet Way.wav
Peak level 85.1 %
Extraction speed 3.3 X
Track quality 100.0 %
Test CRC 02FCD9CC
Copy CRC 02FCD9CC
Track not present in AccurateRip database
Copy OK
Track 5
Filename D:\_EAC\Janice Lakers & Debby Poryes - The Rainbow Lady (1985) [FLAC] {CDSOL-6433}\05 - Like A Lover.wav
Peak level 97.8 %
Extraction speed 3.6 X
Track quality 100.0 %
Test CRC C91EF38F
Copy CRC C91EF38F
Track not present in AccurateRip database
Copy OK
Track 6
Filename D:\_EAC\Janice Lakers & Debby Poryes - The Rainbow Lady (1985) [FLAC] {CDSOL-6433}\06 - Waltz For Debby (For Anne And Kay).wav
Peak level 85.6 %
Extraction speed 3.4 X
Track quality 99.9 %
Test CRC 5E2F27E0
Copy CRC 5E2F27E0
Track not present in AccurateRip database
Copy OK
Track 7
Filename D:\_EAC\Janice Lakers & Debby Poryes - The Rainbow Lady (1985) [FLAC] {CDSOL-6433}\07 - Moondance.wav
Peak level 97.8 %
Extraction speed 4.2 X
Track quality 100.0 %
Test CRC C25AAEDB
Copy CRC C25AAEDB
Track not present in AccurateRip database
Copy OK
Track 8
Filename D:\_EAC\Janice Lakers & Debby Poryes - The Rainbow Lady (1985) [FLAC] {CDSOL-6433}\08 - Falling Grace.wav
Peak level 78.7 %
Extraction speed 4.2 X
Track quality 100.0 %
Test CRC 8E436D55
Copy CRC 8E436D55
Track not present in AccurateRip database
Copy OK
None of the tracks are present in the AccurateRip database
No errors occurred
End of status report
---- CUETools DB Plugin V2.1.6
[CTDB TOCID: hFApeyFUgnYupywIk5gNIYg1IKQ-] found
Submit result: hFApeyFUgnYupywIk5gNIYg1IKQ- has been confirmed
Track | CTDB Status
1 | (2/2) Accurately ripped
2 | (2/2) Accurately ripped
3 | (2/2) Accurately ripped
4 | (2/2) Accurately ripped
5 | (2/2) Accurately ripped
6 | (2/2) Accurately ripped
7 | (2/2) Accurately ripped
8 | (2/2) Accurately ripped
==== Log checksum 8FEF3999A41556575010EE52FE5002944998865CB0F2CA0D14FFB68DDD690720 ====
 
Содержание индексной карты (.CUE)
REM GENRE Jazz
REM DATE 1985
REM DISCID 70082D08
REM COMMENT "ExactAudioCopy v1.3"
PERFORMER "Janice Lakers & Debby Poryes"
TITLE "The Rainbow Lady"
REM COMPOSER ""
FILE "01 - The Rainbow Lady.wav" WAVE
TRACK 01 AUDIO
TITLE "The Rainbow Lady"
PERFORMER "Janice Lakers & Debby Poryes"
REM COMPOSER ""
FLAGS DCP
INDEX 01 00:00:00
FILE "02 - So Sorry, S'il Vous Plait.wav" WAVE
TRACK 02 AUDIO
TITLE "So Sorry, S'il Vous Plait"
PERFORMER "Janice Lakers & Debby Poryes"
REM COMPOSER ""
FLAGS DCP
INDEX 01 00:00:00
FILE "03 - Body And Soul.wav" WAVE
TRACK 03 AUDIO
TITLE "Body And Soul"
PERFORMER "Janice Lakers & Debby Poryes"
REM COMPOSER ""
FLAGS DCP
INDEX 01 00:00:00
FILE "04 - In Your Own Sweet Way.wav" WAVE
TRACK 04 AUDIO
TITLE "In Your Own Sweet Way"
PERFORMER "Janice Lakers & Debby Poryes"
REM COMPOSER ""
FLAGS DCP
INDEX 01 00:00:00
FILE "05 - Like A Lover.wav" WAVE
TRACK 05 AUDIO
TITLE "Like A Lover"
PERFORMER "Janice Lakers & Debby Poryes"
REM COMPOSER ""
FLAGS DCP
INDEX 01 00:00:00
FILE "06 - Waltz For Debby (For Anne And Kay).wav" WAVE
TRACK 06 AUDIO
TITLE "Waltz For Debby (For Anne And Kay)"
PERFORMER "Janice Lakers & Debby Poryes"
REM COMPOSER ""
FLAGS DCP
INDEX 01 00:00:00
FILE "07 - Moondance.wav" WAVE
TRACK 07 AUDIO
TITLE "Moondance"
PERFORMER "Janice Lakers & Debby Poryes"
REM COMPOSER ""
FLAGS DCP
INDEX 01 00:00:00
FILE "08 - Falling Grace.wav" WAVE
TRACK 08 AUDIO
TITLE "Falling Grace"
PERFORMER "Janice Lakers & Debby Poryes"
REM COMPOSER ""
FLAGS DCP
INDEX 01 00:00:00
Скачивание доступно после регистрации!!
Приватный:
Нет (DHT включён)
Размер:
439.20 Мб (460,535,069 байт) » файлов: 25
Участники:
0 раздают, 0 качают (0 участников всего)
Внешние участники:
--- [ Обновить ]
07:00
10
Нет комментариев. Ваш будет первым!