Поиск

(Vocal Jazz) [CD] Henny Vonk - Rerootin' (1982) - 2016, FLAC (tracks+.cue), lossless

(Vocal Jazz) [CD] Henny Vonk - Rerootin' (1982) - 2016, FLAC (tracks+.cue), lossless
Треклист:
Henny Vonk - Rerootin' (1982) Жанр: Vocal Jazz
Носитель: CD
Страна-производитель диска (релиза): Japan
Год издания: 2016
Издатель (лейбл): Timeless Records/Solid Records Japan/Ultra-Vibe
Номер по каталогу: CDSOL-6438
Аудиокодек: FLAC (*.flac)
Тип рипа: tracks+.cue
Битрейт аудио: lossless
Продолжительность: 44:32
Источник (релизер): ruskaval
Наличие сканов в содержимом раздачи: да
Треклист:
01. Frandance (7:07)
02. Circle (3:11)
03. Nefertiti (5:40)
04. Dolphin Dance (4:09)
05. The Blessing (Jazz Version) (3:34)
06. A Tribute To Someone (5:27)
07. Cloud Of Knowledge (4:05)
08. Pompeii (4:26)
09. The Blessing (Latin-Jazz Version) (6:53)
Personnel:
Henny Vonk - vocals
Rov Van Den Broeck - piano
Clint Houston - bass
Billy Higgins - drums
Rec.: Studio 44, Monster, Holland, November 18, 1981 and January 4, 1982.
 
 
Об альбоме
Reissue with the latest remastering. Features original cover artwork. Comes with a descripton in Japanese. Maybe the only album we've ever seen from Henny Vonk – a jazz singer with a Dutch name, but a style here that's right up there with some of the hipper American singers of the period – especially those who know how to move on the hipper currents of the spectrum! At some level, Henny's got a way of stretching out her words while inflecting them, with a vibe that's reminiscent of Sheila Jordan – but overall, Vonk's maybe a straighter jazz singer, too – but one with a nicely sensitive vibe, as her vocals are balanced out with the introspective piano work of Rov Van Den Broeck. The rhythm duo adds a nice current of soul from time to time – with Clint Houston on bass and Billy Higgins on drums – and many cuts have new lyrics written for the album.

 
Лог создания рипа
Exact Audio Copy V1.3 from 2. September 2016
EAC extraction logfile from 27. March 2018, 20:12
Henny Vonk / Rerootin'
Used drive : ATAPI iHAS122 F Adapter: 1 ID: 2
Read mode : Secure
Utilize accurate stream : Yes
Defeat audio cache : Yes
Make use of C2 pointers : No
Read offset correction : 6
Overread into Lead-In and Lead-Out : No
Fill up missing offset samples with silence : Yes
Delete leading and trailing silent blocks : No
Null samples used in CRC calculations : Yes
Used interface : Native Win32 interface for Win NT & 2000
Gap handling : Appended to previous track
Used output format : User Defined Encoder
Selected bitrate : 1024 kBit/s
Quality : High
Add ID3 tag : No
Command line compressor : C:\Program Files (x86)\Exact Audio Copy_v1.3\Flac\flac.exe
Additional command line options : -8 -V -T "ARTIST=%artist%" -T "TITLE=%title%" -T "ALBUM=%albumtitle%" -T "DATE=%year%" -T "TRACKNUMBER=%tracknr%" -T "TOTALTRACKS=%numtracks%" -T "GENRE=%genre%" -T "ALBUMARTIST=%albumartist%" -T "ALBUM ARTIST=%albumartist%" -T "COMMENT=EAC Secure Mode, Test & Copy, AccurateRip, FLAC -8" %source%
TOC of the extracted CD
Track | Start | Length | Start sector | End sector
---------------------------------------------------------
1 | 0:00.00 | 7:06.43 | 0 | 31992
2 | 7:06.43 | 3:10.44 | 31993 | 46286
3 | 10:17.12 | 5:40.18 | 46287 | 71804
4 | 15:57.30 | 4:09.28 | 71805 | 90507
5 | 20:06.58 | 3:34.07 | 90508 | 106564
6 | 23:40.65 | 5:27.27 | 106565 | 131116
7 | 29:08.17 | 4:04.71 | 131117 | 149487
8 | 33:13.13 | 4:26.01 | 149488 | 169438
9 | 37:39.14 | 6:52.71 | 169439 | 200409
Track 1
Filename D:\_EAC\Henny Vonk - Rerootin' (1982) [FLAC] {Timeless Japan CDSOL-6438 rel 2016}\01 - Frandance.wav
Pre-gap length 0:00:02.00
Peak level 97.8 %
Extraction speed 4.9 X
Track quality 99.9 %
Test CRC 005A8554
Copy CRC 005A8554
Track not present in AccurateRip database
Copy OK
Track 2
Filename D:\_EAC\Henny Vonk - Rerootin' (1982) [FLAC] {Timeless Japan CDSOL-6438 rel 2016}\02 - Circle.wav
Peak level 83.4 %
Extraction speed 4.6 X
Track quality 99.9 %
Test CRC D3730761
Copy CRC D3730761
Track not present in AccurateRip database
Copy OK
Track 3
Filename D:\_EAC\Henny Vonk - Rerootin' (1982) [FLAC] {Timeless Japan CDSOL-6438 rel 2016}\03 - Nefertiti.wav
Peak level 89.2 %
Extraction speed 6.7 X
Track quality 100.0 %
Test CRC 1C333B5A
Copy CRC 1C333B5A
Track not present in AccurateRip database
Copy OK
Track 4
Filename D:\_EAC\Henny Vonk - Rerootin' (1982) [FLAC] {Timeless Japan CDSOL-6438 rel 2016}\04 - Dolphin Dance.wav
Peak level 91.0 %
Extraction speed 7.1 X
Track quality 100.0 %
Test CRC F9DBDAF6
Copy CRC F9DBDAF6
Track not present in AccurateRip database
Copy OK
Track 5
Filename D:\_EAC\Henny Vonk - Rerootin' (1982) [FLAC] {Timeless Japan CDSOL-6438 rel 2016}\05 - The Blessing (Jazz Version).wav
Peak level 94.6 %
Extraction speed 5.8 X
Track quality 99.9 %
Test CRC 65D13C2B
Copy CRC 65D13C2B
Track not present in AccurateRip database
Copy OK
Track 6
Filename D:\_EAC\Henny Vonk - Rerootin' (1982) [FLAC] {Timeless Japan CDSOL-6438 rel 2016}\06 - A Tribute To Someone.wav
Peak level 97.8 %
Extraction speed 6.9 X
Track quality 99.9 %
Test CRC 914F47E6
Copy CRC 914F47E6
Track not present in AccurateRip database
Copy OK
Track 7
Filename D:\_EAC\Henny Vonk - Rerootin' (1982) [FLAC] {Timeless Japan CDSOL-6438 rel 2016}\07 - Cloud Of Knowledge.wav
Peak level 97.8 %
Extraction speed 8.4 X
Track quality 100.0 %
Test CRC 97D6DD48
Copy CRC 97D6DD48
Track not present in AccurateRip database
Copy OK
Track 8
Filename D:\_EAC\Henny Vonk - Rerootin' (1982) [FLAC] {Timeless Japan CDSOL-6438 rel 2016}\08 - Pompeii.wav
Peak level 96.6 %
Extraction speed 8.8 X
Track quality 100.0 %
Test CRC 0C4D791A
Copy CRC 0C4D791A
Track not present in AccurateRip database
Copy OK
Track 9
Filename D:\_EAC\Henny Vonk - Rerootin' (1982) [FLAC] {Timeless Japan CDSOL-6438 rel 2016}\09 - The Blessing (Latin-Jazz Version).wav
Peak level 97.8 %
Extraction speed 9.4 X
Track quality 100.0 %
Test CRC 2986DFDC
Copy CRC 2986DFDC
Track not present in AccurateRip database
Copy OK
None of the tracks are present in the AccurateRip database
No errors occurred
End of status report
---- CUETools DB Plugin V2.1.6
[CTDB TOCID: ZisYTGqcsAQZBa3pUqu7U4RcjE8-] found
Submit result: ZisYTGqcsAQZBa3pUqu7U4RcjE8- has been confirmed
Track | CTDB Status
1 | (1/1) Accurately ripped
2 | (1/1) Accurately ripped
3 | (1/1) Accurately ripped
4 | (1/1) Accurately ripped
5 | (1/1) Accurately ripped
6 | (1/1) Accurately ripped
7 | (1/1) Accurately ripped
8 | (1/1) Accurately ripped
9 | (1/1) Accurately ripped
==== Log checksum 994E643D35F67F9FF18ACA17A003D14A96CBDE300C5B1289437C494863868325 ====
 
Содержание индексной карты (.CUE)
REM GENRE Jazz
REM DATE 1982
REM DISCID 7B0A7009
REM COMMENT "ExactAudioCopy v1.3"
PERFORMER "Henny Vonk"
TITLE "Rerootin'"
REM COMPOSER ""
FILE "01 - Frandance.wav" WAVE
TRACK 01 AUDIO
TITLE "Frandance"
PERFORMER "Henny Vonk"
REM COMPOSER ""
FLAGS DCP
INDEX 01 00:00:00
FILE "02 - Circle.wav" WAVE
TRACK 02 AUDIO
TITLE "Circle"
PERFORMER "Henny Vonk"
REM COMPOSER ""
FLAGS DCP
INDEX 01 00:00:00
FILE "03 - Nefertiti.wav" WAVE
TRACK 03 AUDIO
TITLE "Nefertiti"
PERFORMER "Henny Vonk"
REM COMPOSER ""
FLAGS DCP
INDEX 01 00:00:00
FILE "04 - Dolphin Dance.wav" WAVE
TRACK 04 AUDIO
TITLE "Dolphin Dance"
PERFORMER "Henny Vonk"
REM COMPOSER ""
FLAGS DCP
INDEX 01 00:00:00
FILE "05 - The Blessing (Jazz Version).wav" WAVE
TRACK 05 AUDIO
TITLE "The Blessing (Jazz Version)"
PERFORMER "Henny Vonk"
REM COMPOSER ""
FLAGS DCP
INDEX 01 00:00:00
FILE "06 - A Tribute To Someone.wav" WAVE
TRACK 06 AUDIO
TITLE "A Tribute To Someone"
PERFORMER "Henny Vonk"
REM COMPOSER ""
FLAGS DCP
INDEX 01 00:00:00
FILE "07 - Cloud Of Knowledge.wav" WAVE
TRACK 07 AUDIO
TITLE "Cloud Of Knowledge"
PERFORMER "Henny Vonk"
REM COMPOSER ""
FLAGS DCP
INDEX 01 00:00:00
FILE "08 - Pompeii.wav" WAVE
TRACK 08 AUDIO
TITLE "Pompeii"
PERFORMER "Henny Vonk"
REM COMPOSER ""
FLAGS DCP
INDEX 01 00:00:00
FILE "09 - The Blessing (Latin-Jazz Version).wav" WAVE
TRACK 09 AUDIO
TITLE "The Blessing (Latin-Jazz Version)"
PERFORMER "Henny Vonk"
REM COMPOSER ""
FLAGS DCP
INDEX 01 00:00:00
Скачивание доступно после регистрации!!
Приватный:
Нет (DHT включён)
Размер:
475.62 Мб (498,723,824 байт) » файлов: 26
Участники:
0 раздают, 0 качают (0 участников всего)
Внешние участники:
1 раздают, 0 качают (1 участников всего) [ Обновить ]
07:02
16
Нет комментариев. Ваш будет первым!