Поиск

(Vocal Jazz) [CD] Carmen McRae - Book Of Ballads - 2008, FLAC (tracks+.cue), lossless

(Vocal Jazz) [CD] Carmen McRae - Book Of Ballads - 2008, FLAC (tracks+.cue), lossless
Треклист:
Carmen McRae - Book Of Ballads
Жанр: Vocal Jazz
Носитель: CD
Страна-производитель диска (релиза): Japan
Год издания: 2008
Издатель (лейбл): Kapp Records
Номер по каталогу: UCCU-9634
Страна исполнителя (группы): USA
Аудиокодек: FLAC (*.flac)
Тип рипа: tracks+.cue
Битрейт аудио: lossless
Продолжительность: 00:41:11
Источник (релизер): antlermoth (Redacted)
Наличие сканов в содержимом раздачи: нет
Треклист:
01. By Myself [3:14]
02. The Thrill Is Gone [3:55]
03. How Long Has This Been Going On [4:09]
04. Do You Know Why? [2:54]
05. My Romance [3:55]
06. Isn't It Romantic [3:03]
07. If Love Is Good To Me [3:31]
08. When I Fall In Love [3:49]
09. Please Be Kind [3:16]
10. He Was Too Good To Me [2:43]
11. Angel Eyes [2:43]
12. Something I Dreamed Last Night [3:59]
 
Лог создания рипа
X Lossless Decoder version 20141129 (148.1)
XLD extraction logfile from 2015-01-02 08:51:08 -0800
Carmen McRae / Book Of Ballads
Used drive : HL-DT-ST DVDRW GX40N (revision RQ00)
Media type : Pressed CD
Ripper mode : XLD Secure Ripper
Disable audio cache : OK for the drive with a cache less than 1375KiB
Make use of C2 pointers : NO
Read offset correction : 6
Max retry count : 100
Gap status : Analyzed, Appended (except HTOA)
TOC of the extracted CD
Track | Start | Length | Start sector | End sector
---------------------------------------------------------
1 | 00:00:00 | 03:13:70 | 0 | 14544
2 | 03:13:70 | 03:54:52 | 14545 | 32146
3 | 07:08:47 | 04:08:48 | 32147 | 50794
4 | 11:17:20 | 02:54:15 | 50795 | 63859
5 | 14:11:35 | 03:55:30 | 63860 | 81514
6 | 18:06:65 | 03:02:50 | 81515 | 95214
7 | 21:09:40 | 03:31:05 | 95215 | 111044
8 | 24:40:45 | 03:49:37 | 111045 | 128256
9 | 28:30:07 | 03:16:10 | 128257 | 142966
10 | 31:46:17 | 02:43:10 | 142967 | 155201
11 | 34:29:27 | 02:43:25 | 155202 | 167451
12 | 37:12:52 | 03:58:43 | 167452 | 185344
List of alternate offset correction values
# | Absolute | Relative | Confidence
------------------------------------------
1 | 367 | 361 | 3
AccurateRip Summary (DiscID: 0012be39-00adfb61-9b09a70c)
Track 01 : OK (v1+v2, confidence 10/13)
Track 02 : OK (v1+v2, confidence 10/13)
Track 03 : OK (v1+v2, confidence 9/12)
Track 04 : OK (v1+v2, confidence 9/12)
Track 05 : OK (v1+v2, confidence 9/12)
Track 06 : OK (v1+v2, confidence 9/12)
Track 07 : OK (v1+v2, confidence 9/12)
Track 08 : OK (v1+v2, confidence 9/12)
Track 09 : OK (v1+v2, confidence 9/12)
Track 10 : OK (v1+v2, confidence 9/12)
Track 11 : OK (v1+v2, confidence 9/12)
Track 12 : OK (v1+v2, confidence 9/12)
->All tracks accurately ripped.
All Tracks
Album gain : -3.86 dB
Peak : 0.979736
Statistics
Read error : 0
Jitter error (maybe fixed) : 0
Retry sector count : 0
Damaged sector count : 0
Track 01
Filename : /Users/david/Temp/Staging/Carmen McRae - Book Of Ballads (1958) [16-44]/01 By Myself.flac
Pre-gap length : 00:02:00
Track gain : -2.58 dB
Peak : 0.979706
CRC32 hash (test run) : 26509031
CRC32 hash : 26509031
CRC32 hash (skip zero) : CCC4110A
AccurateRip v1 signature : 294FF5C3
AccurateRip v2 signature : E799FA66
->Accurately ripped (v1+v2, confidence 2+8/13)
Statistics
Read error : 0
Jitter error (maybe fixed) : 0
Retry sector count : 0
Damaged sector count : 0
Track 02
Filename : /Users/david/Temp/Staging/Carmen McRae - Book Of Ballads (1958) [16-44]/02 The Thrill Is Gone.flac
Pre-gap length : 00:02:34
Track gain : -4.08 dB
Peak : 0.979736
CRC32 hash (test run) : 1C1DB9CD
CRC32 hash : 1C1DB9CD
CRC32 hash (skip zero) : CC99A618
AccurateRip v1 signature : 8CD9FEE6
AccurateRip v2 signature : 5E92D8D7
->Accurately ripped (v1+v2, confidence 2+8/13)
Statistics
Read error : 0
Jitter error (maybe fixed) : 0
Retry sector count : 0
Damaged sector count : 0
Track 03
Filename : /Users/david/Temp/Staging/Carmen McRae - Book Of Ballads (1958) [16-44]/03 How Long Has This Been Going On.flac
Pre-gap length : 00:02:34
Track gain : -4.44 dB
Peak : 0.979706
CRC32 hash (test run) : 990BC8F0
CRC32 hash : 990BC8F0
CRC32 hash (skip zero) : 6C8B5D5E
AccurateRip v1 signature : B650097E
AccurateRip v2 signature : 76EC3CB0
->Accurately ripped (v1+v2, confidence 2+7/12)
Statistics
Read error : 0
Jitter error (maybe fixed) : 0
Retry sector count : 0
Damaged sector count : 0
Track 04
Filename : /Users/david/Temp/Staging/Carmen McRae - Book Of Ballads (1958) [16-44]/04 Do You Know Why?.flac
Pre-gap length : 00:02:34
Track gain : -4.15 dB
Peak : 0.942566
CRC32 hash (test run) : 698E0266
CRC32 hash : 698E0266
CRC32 hash (skip zero) : F917EC86
AccurateRip v1 signature : E37C7CFD
AccurateRip v2 signature : E8E001AD
->Accurately ripped (v1+v2, confidence 2+7/12)
Statistics
Read error : 0
Jitter error (maybe fixed) : 0
Retry sector count : 0
Damaged sector count : 0
Track 05
Filename : /Users/david/Temp/Staging/Carmen McRae - Book Of Ballads (1958) [16-44]/05 My Romance.flac
Pre-gap length : 00:02:34
Track gain : -3.94 dB
Peak : 0.979706
CRC32 hash (test run) : 513FDB1B
CRC32 hash : 513FDB1B
CRC32 hash (skip zero) : 209C8EFB
AccurateRip v1 signature : 7D2311A8
AccurateRip v2 signature : BBC8F198
->Accurately ripped (v1+v2, confidence 2+7/12)
Statistics
Read error : 0
Jitter error (maybe fixed) : 0
Retry sector count : 0
Damaged sector count : 0
Track 06
Filename : /Users/david/Temp/Staging/Carmen McRae - Book Of Ballads (1958) [16-44]/06 Isn't It Romantic.flac
Pre-gap length : 00:02:34
Track gain : -1.73 dB
Peak : 0.773041
CRC32 hash (test run) : 4650D097
CRC32 hash : 4650D097
CRC32 hash (skip zero) : B8434946
AccurateRip v1 signature : BABD19DC
AccurateRip v2 signature : 5D943CA1
->Accurately ripped (v1+v2, confidence 2+7/12)
Statistics
Read error : 0
Jitter error (maybe fixed) : 0
Retry sector count : 0
Damaged sector count : 0
Track 07
Filename : /Users/david/Temp/Staging/Carmen McRae - Book Of Ballads (1958) [16-44]/07 If Love Is Good To Me.flac
Pre-gap length : 00:02:34
Track gain : -4.42 dB
Peak : 0.979706
CRC32 hash (test run) : 9DF6042A
CRC32 hash : 9DF6042A
CRC32 hash (skip zero) : 3B3BF079
AccurateRip v1 signature : 55215171
AccurateRip v2 signature : 76171367
->Accurately ripped (v1+v2, confidence 2+7/12)
Statistics
Read error : 0
Jitter error (maybe fixed) : 0
Retry sector count : 0
Damaged sector count : 0
Track 08
Filename : /Users/david/Temp/Staging/Carmen McRae - Book Of Ballads (1958) [16-44]/08 When I Fall In Love.flac
Pre-gap length : 00:02:34
Track gain : -0.03 dB
Peak : 0.901428
CRC32 hash (test run) : 1FF2A8F5
CRC32 hash : 1FF2A8F5
CRC32 hash (skip zero) : 20D39DF0
AccurateRip v1 signature : 675FBC87
AccurateRip v2 signature : 67CE5373
->Accurately ripped (v1+v2, confidence 2+7/12)
Statistics
Read error : 0
Jitter error (maybe fixed) : 0
Retry sector count : 0
Damaged sector count : 0
Track 09
Filename : /Users/david/Temp/Staging/Carmen McRae - Book Of Ballads (1958) [16-44]/09 Please Be Kind.flac
Pre-gap length : 00:02:34
Track gain : -2.91 dB
Peak : 0.784943
CRC32 hash (test run) : C14B3683
CRC32 hash : C14B3683
CRC32 hash (skip zero) : 0CB33899
AccurateRip v1 signature : B0C6F983
AccurateRip v2 signature : BE99744E
->Accurately ripped (v1+v2, confidence 2+7/12)
Statistics
Read error : 0
Jitter error (maybe fixed) : 0
Retry sector count : 0
Damaged sector count : 0
Track 10
Filename : /Users/david/Temp/Staging/Carmen McRae - Book Of Ballads (1958) [16-44]/10 He Was Too Good To Me.flac
Pre-gap length : 00:02:34
Track gain : -3.29 dB
Peak : 0.979706
CRC32 hash (test run) : 672420C0
CRC32 hash : 672420C0
CRC32 hash (skip zero) : 07188790
AccurateRip v1 signature : 7A805045
AccurateRip v2 signature : F8DE673D
->Accurately ripped (v1+v2, confidence 2+7/12)
Statistics
Read error : 0
Jitter error (maybe fixed) : 0
Retry sector count : 0
Damaged sector count : 0
Track 11
Filename : /Users/david/Temp/Staging/Carmen McRae - Book Of Ballads (1958) [16-44]/11 Angel Eyes.flac
Pre-gap length : 00:02:34
Track gain : -1.51 dB
Peak : 0.979706
CRC32 hash (test run) : 5943F31C
CRC32 hash : 5943F31C
CRC32 hash (skip zero) : 844B5A37
AccurateRip v1 signature : 58B3F501
AccurateRip v2 signature : 615222E5
->Accurately ripped (v1+v2, confidence 2+7/12)
Statistics
Read error : 0
Jitter error (maybe fixed) : 0
Retry sector count : 0
Damaged sector count : 0
Track 12
Filename : /Users/david/Temp/Staging/Carmen McRae - Book Of Ballads (1958) [16-44]/12 Something I Dreamed Last Night.flac
Pre-gap length : 00:02:34
Track gain : -6.13 dB
Peak : 0.979706
CRC32 hash (test run) : F54ECEB6
CRC32 hash : F54ECEB6
CRC32 hash (skip zero) : A8470549
AccurateRip v1 signature : 8757034E
AccurateRip v2 signature : 0C964C95
->Accurately ripped (v1+v2, confidence 2+7/12)
Statistics
Read error : 0
Jitter error (maybe fixed) : 0
Retry sector count : 0
Damaged sector count : 0
No errors occurred
End of status report
-----BEGIN XLD SIGNATURE-----
lpyCEQrMKMBqMu_HTiGy5kVOJxdrZBIIUTd5SVjGqsOhZdYgXVHQhj7zXWEmytpjUC1ZV3XkKpC6kmUoWqqzeq0Syyd3aZ9.dAWhSuy
-----END XLD SIGNATURE-----
 
Содержание индексной карты (.CUE)
TITLE "Book Of Ballads"
PERFORMER "Carmen McRae"
CATALOG 4988005330581
REM GENRE "Jazz"
REM DATE "1958"
REM DISCNUMBER 1
REM TOTALDISCS 1
REM DISCID 9B09A70C
REM REPLAYGAIN_ALBUM_GAIN -3.86 dB
REM REPLAYGAIN_ALBUM_PEAK 0.979736
FILE "01 By Myself.flac" WAVE
TRACK 01 AUDIO
TITLE "By Myself"
PERFORMER "Carmen McRae"
SONGWRITER "Howard Dietz/Arthur Schwartz"
REM REPLAYGAIN_TRACK_GAIN -2.58 dB
REM REPLAYGAIN_TRACK_PEAK 0.979706
INDEX 01 00:00:00
TRACK 02 AUDIO
TITLE "The Thrill Is Gone"
PERFORMER "Carmen McRae"
SONGWRITER "Buddy DeSylva/Ray Henderson"
REM REPLAYGAIN_TRACK_GAIN -4.08 dB
REM REPLAYGAIN_TRACK_PEAK 0.979736
INDEX 00 03:11:36
FILE "02 The Thrill Is Gone.flac" WAVE
INDEX 01 00:00:00
TRACK 03 AUDIO
TITLE "How Long Has This Been Going On"
PERFORMER "Carmen McRae"
SONGWRITER "George Gershwin/Ira Gershwin"
REM REPLAYGAIN_TRACK_GAIN -4.44 dB
REM REPLAYGAIN_TRACK_PEAK 0.979706
INDEX 00 03:52:18
FILE "03 How Long Has This Been Going On.flac" WAVE
INDEX 01 00:00:00
TRACK 04 AUDIO
TITLE "Do You Know Why?"
PERFORMER "Carmen McRae"
SONGWRITER "Jimmy Heusen/Johnny Burke"
REM REPLAYGAIN_TRACK_GAIN -4.15 dB
REM REPLAYGAIN_TRACK_PEAK 0.942566
INDEX 00 04:06:14
FILE "04 Do You Know Why?.flac" WAVE
INDEX 01 00:00:00
TRACK 05 AUDIO
TITLE "My Romance"
PERFORMER "Carmen McRae"
SONGWRITER "Richard Rodgers/Lorenz Hart"
REM REPLAYGAIN_TRACK_GAIN -3.94 dB
REM REPLAYGAIN_TRACK_PEAK 0.979706
INDEX 00 02:51:56
FILE "05 My Romance.flac" WAVE
INDEX 01 00:00:00
TRACK 06 AUDIO
TITLE "Isn't It Romantic"
PERFORMER "Carmen McRae"
SONGWRITER "Lorenz Hart/Richard Rodgers"
REM REPLAYGAIN_TRACK_GAIN -1.73 dB
REM REPLAYGAIN_TRACK_PEAK 0.773041
INDEX 00 03:52:71
FILE "06 Isn't It Romantic.flac" WAVE
INDEX 01 00:00:00
TRACK 07 AUDIO
TITLE "If Love Is Good To Me"
PERFORMER "Carmen McRae"
SONGWRITER "Fred Spielman/Redd Evans"
REM REPLAYGAIN_TRACK_GAIN -4.42 dB
REM REPLAYGAIN_TRACK_PEAK 0.979706
INDEX 00 03:00:16
FILE "07 If Love Is Good To Me.flac" WAVE
INDEX 01 00:00:00
TRACK 08 AUDIO
TITLE "When I Fall In Love"
PERFORMER "Carmen McRae"
SONGWRITER "Edward Heyman/Victor Young"
REM REPLAYGAIN_TRACK_GAIN -0.03 dB
REM REPLAYGAIN_TRACK_PEAK 0.901428
INDEX 00 03:28:46
FILE "08 When I Fall In Love.flac" WAVE
INDEX 01 00:00:00
TRACK 09 AUDIO
TITLE "Please Be Kind"
PERFORMER "Carmen McRae"
SONGWRITER "Saul Chaplin/Sammy Cahn"
REM REPLAYGAIN_TRACK_GAIN -2.91 dB
REM REPLAYGAIN_TRACK_PEAK 0.784943
INDEX 00 03:47:03
FILE "09 Please Be Kind.flac" WAVE
INDEX 01 00:00:00
TRACK 10 AUDIO
TITLE "He Was Too Good To Me"
PERFORMER "Carmen McRae"
SONGWRITER "Richard Rodgers/Lorenz Hart"
REM REPLAYGAIN_TRACK_GAIN -3.29 dB
REM REPLAYGAIN_TRACK_PEAK 0.979706
INDEX 00 03:13:51
FILE "10 He Was Too Good To Me.flac" WAVE
INDEX 01 00:00:00
TRACK 11 AUDIO
TITLE "Angel Eyes"
PERFORMER "Carmen McRae"
SONGWRITER "Earl K. Brent/Matt Dennis"
REM REPLAYGAIN_TRACK_GAIN -1.51 dB
REM REPLAYGAIN_TRACK_PEAK 0.979706
INDEX 00 02:40:51
FILE "11 Angel Eyes.flac" WAVE
INDEX 01 00:00:00
TRACK 12 AUDIO
TITLE "Something I Dreamed Last Night"
PERFORMER "Carmen McRae"
SONGWRITER "Herbert Magidson/Sammy Fain"
REM REPLAYGAIN_TRACK_GAIN -6.13 dB
REM REPLAYGAIN_TRACK_PEAK 0.979706
INDEX 00 02:40:66
FILE "12 Something I Dreamed Last Night.flac" WAVE
INDEX 01 00:00:00
 
Проверка качества 1
CUE Corrector v. 8.3.4 / b. 865 (Jul. 14, 2018)
Carmen McRae / Book Of Ballads
AccurateRip ID [0012be39-00adfb61-9b09a70c] found.
Get file: http://www.accuraterip.com/accuraterip/9/3/e/dBAR-012-0012be39-00adfb61-9b09a70c.bin
AccurateRip summary:
Track 1 accurately ripped (confidence 2) [294FF5C3] (AR v1)
Track 2 accurately ripped (confidence 2) [8CD9FEE6] (AR v1)
Track 3 accurately ripped (confidence 2) [B650097E] (AR v1)
Track 4 accurately ripped (confidence 2) [E37C7CFD] (AR v1)
Track 5 accurately ripped (confidence 2) [7D2311A8] (AR v1)
Track 6 accurately ripped (confidence 2) [BABD19DC] (AR v1)
Track 7 accurately ripped (confidence 2) [55215171] (AR v1)
Track 8 accurately ripped (confidence 2) [675FBC87] (AR v1)
Track 9 accurately ripped (confidence 2) [B0C6F983] (AR v1)
Track 10 accurately ripped (confidence 2) [7A805045] (AR v1)
Track 11 accurately ripped (confidence 2) [58B3F501] (AR v1)
Track 12 accurately ripped (confidence 2) [8757034E] (AR v1)
All tracks accurately ripped
——————————————————————————————————————————————————
Track 1 accurately ripped (confidence 13) [E799FA66] (AR v2)
Track 2 accurately ripped (confidence 13) [5E92D8D7] (AR v2)
Track 3 accurately ripped (confidence 12) [76EC3CB0] (AR v2)
Track 4 accurately ripped (confidence 12) [E8E001AD] (AR v2)
Track 5 accurately ripped (confidence 12) [BBC8F198] (AR v2)
Track 6 accurately ripped (confidence 12) [5D943CA1] (AR v2)
Track 7 accurately ripped (confidence 12) [76171367] (AR v2)
Track 8 accurately ripped (confidence 12) [67CE5373] (AR v2)
Track 9 accurately ripped (confidence 12) [BE99744E] (AR v2)
Track 10 accurately ripped (confidence 12) [F8DE673D] (AR v2)
Track 11 accurately ripped (confidence 12) [615222E5] (AR v2)
Track 12 accurately ripped (confidence 12) [0C964C95] (AR v2)
All tracks accurately ripped
——————————————————————————————————————————————————
Offsetted by -1475:
Track 1 cannot be verified as accurate (confidence 30) [03D82611], AccurateRip returned [294FF5C3] (AR v1)
Track 2 cannot be verified as accurate (confidence 30) [4950B2DB], AccurateRip returned [8CD9FEE6] (AR v1)
Track 3 cannot be verified as accurate (confidence 28) [A4E47156], AccurateRip returned [B650097E] (AR v1)
Track 4 cannot be verified as accurate (confidence 28) [00459774], AccurateRip returned [E37C7CFD] (AR v1)
Track 5 cannot be verified as accurate (confidence 29) [609939D6], AccurateRip returned [7D2311A8] (AR v1)
Track 6 cannot be verified as accurate (confidence 28) [555117E3], AccurateRip returned [BABD19DC] (AR v1)
Track 7 cannot be verified as accurate (confidence 29) [88F6DFBC], AccurateRip returned [55215171] (AR v1)
Track 8 cannot be verified as accurate (confidence 29) [7EDB4F01], AccurateRip returned [675FBC87] (AR v1)
Track 9 cannot be verified as accurate (confidence 29) [86831E29], AccurateRip returned [B0C6F983] (AR v1)
Track 10 cannot be verified as accurate (confidence 29) [3A4E9D61], AccurateRip returned [7A805045] (AR v1)
Track 11 cannot be verified as accurate (confidence 29) [3B270C8A], AccurateRip returned [58B3F501] (AR v1)
Track 12 cannot be verified as accurate (confidence 29) [E3771DE0], AccurateRip returned [8757034E] (AR v1)
No tracks could be verified as accurate
You may have a different pressing from the one(s) in the database
——————————————————————————————————————————————————
Offsetted by -1355:
Track 1 cannot be verified as accurate (confidence 30) [C6ACF5E1], AccurateRip returned [E386DE6F] (AR v1)
Track 2 cannot be verified as accurate (confidence 30) [69B61E93], AccurateRip returned [CC1F3333] (AR v1)
Track 3 cannot be verified as accurate (confidence 28) [13A6E796], AccurateRip returned [92B875FC] (AR v1)
Track 4 cannot be verified as accurate (confidence 28) [4CE642DC], AccurateRip returned [8E52400B] (AR v1)
Track 5 cannot be verified as accurate (confidence 29) [814B0EA6], AccurateRip returned [716B8D65] (AR v1)
Track 6 cannot be verified as accurate (confidence 28) [F8E754CB], AccurateRip returned [E3AF6DD2] (AR v1)
Track 7 cannot be verified as accurate (confidence 29) [7B339A04], AccurateRip returned [1FAA4551] (AR v1)
Track 8 cannot be verified as accurate (confidence 29) [A0869FF1], AccurateRip returned [535C53F2] (AR v1)
Track 9 cannot be verified as accurate (confidence 29) [E3557039], AccurateRip returned [39A79EEB] (AR v1)
Track 10 cannot be verified as accurate (confidence 29) [DF344901], AccurateRip returned [852E09B7] (AR v1)
Track 11 cannot be verified as accurate (confidence 29) [D9C29122], AccurateRip returned [0FAE0704] (AR v1)
Track 12 cannot be verified as accurate (confidence 29) [C5685B10], AccurateRip returned [05A71B1F] (AR v1)
No tracks could be verified as accurate
You may have a different pressing from the one(s) in the database
——————————————————————————————————————————————————
Offsetted by -484:
Track 1 not present in database
Track 2 not present in database
Track 3 not present in database
Track 4 not present in database
Track 5 not present in database
Track 6 not present in database
Track 7 not present in database
Track 8 not present in database
Track 9 not present in database
Track 10 not present in database
Track 11 not present in database
Track 12 not present in database
12 track(s) not present in the AccurateRip database
No tracks could be verified as accurate
You may have a different pressing from the one(s) in the database
——————————————————————————————————————————————————
Offsetted by 361:
Track 1 cannot be verified as accurate (confidence 30) [5BF69199], AccurateRip returned [BCDAF34F] (AR v1)
Track 2 cannot be verified as accurate (confidence 30) [85C6D627], AccurateRip returned [ECBF424A] (AR v1)
Track 3 cannot be verified as accurate (confidence 28) [76B6E8F6], AccurateRip returned [C060FFE8] (AR v1)
Track 4 cannot be verified as accurate (confidence 28) [47DFD5F8], AccurateRip returned [F910B8DA] (AR v1)
Track 5 cannot be verified as accurate (confidence 29) [A1A071DE], AccurateRip returned [6CC98154] (AR v1)
Track 6 cannot be verified as accurate (confidence 28) [9C322227], AccurateRip returned [E7AA71DC] (AR v1)
Track 7 cannot be verified as accurate (confidence 29) [03319B70], AccurateRip returned [BCEA410A] (AR v1)
Track 8 cannot be verified as accurate (confidence 29) [CECBA559], AccurateRip returned [5B7E589F] (AR v1)
Track 9 cannot be verified as accurate (confidence 29) [92AE9F51], AccurateRip returned [48FC3F80] (AR v1)
Track 10 cannot be verified as accurate (confidence 29) [E2089271], AccurateRip returned [11A51118] (AR v1)
Track 11 cannot be verified as accurate (confidence 29) [1C3F4606], AccurateRip returned [D4978A8D] (AR v1)
Track 12 cannot be verified as accurate (confidence 29) [E46212D8], AccurateRip returned [F39B4379] (AR v1)
No tracks could be verified as accurate
You may have a different pressing from the one(s) in the database
Track Peak [ CRC32 ] [W/O NULL] [ LOG ] [ ARv1 ] [ ARv2 ]
-- 97.9 [0278ABB6] [DB99EA45]
01 97.9 [26509031] [CCC4110A] [294FF5C3] [E799FA66]
02 97.9 [1C1DB9CD] [CC99A618] [8CD9FEE6] [5E92D8D7]
03 97.9 [990BC8F0] [6C8B5D5E] [B650097E] [76EC3CB0]
04 94.2 [698E0266] [F917EC86] [E37C7CFD] [E8E001AD]
05 97.9 [513FDB1B] [209C8EFB] [7D2311A8] [BBC8F198]
06 77.3 [4650D097] [B8434946] [BABD19DC] [5D943CA1]
07 97.9 [9DF6042A] [3B3BF079] [55215171] [76171367]
08 90.1 [1FF2A8F5] [20D39DF0] [675FBC87] [67CE5373]
09 78.4 [C14B3683] [0CB33899] [B0C6F983] [BE99744E]
10 97.9 [672420C0] [07188790] [7A805045] [F8DE673D]
11 97.9 [5943F31C] [844B5A37] [58B3F501] [615222E5]
12 97.9 [F54ECEB6] [A8470549] [8757034E] [0C964C95]
Log created at August 03, 2018 10:15:10
Time elapsed: 7.231 s
=== E558E45C4D611169D00E2C690A4DCCE3962DC20027CFF923B5CFD8B08490DF28 ===
 
Проверка качества 2
CUE Corrector v. 8.3.4 / b. 865 (Jul. 14, 2018)
————————————————————————————————————————————————————————————————————————
Carmen McRae / Book Of Ballads
CUE file: Book Of Ballads_correct.cue
Audio files:
01 By Myself.flac [03:13.933; FLAC • 775 kbps • 16 bit \ 44100 Hz • stereo; 17.93 MB (18 805 371 B)]
02 The Thrill Is Gone.flac [03:54.693; FLAC • 808 kbps • 16 bit \ 44100 Hz • stereo; 22.63 MB (23 732 175 B)]
03 How Long Has This Been Going On.flac [04:08.640; FLAC • 780 kbps • 16 bit \ 44100 Hz • stereo; 23.13 MB (24 256 989 B)]
04 Do You Know Why.flac [02:54.200; FLAC • 781 kbps • 16 bit \ 44100 Hz • stereo; 16.24 MB (17 026 494 B)]
05 My Romance.flac [03:55.400; FLAC • 789 kbps • 16 bit \ 44100 Hz • stereo; 22.15 MB (23 230 538 B)]
06 Isn't It Romantic.flac [03:02.667; FLAC • 802 kbps • 16 bit \ 44100 Hz • stereo; 17.47 MB (18 319 863 B)]
07 If Love Is Good To Me.flac [03:31.067; FLAC • 760 kbps • 16 bit \ 44100 Hz • stereo; 19.13 MB (20 062 239 B)]
08 When I Fall In Love.flac [03:49.493; FLAC • 769 kbps • 16 bit \ 44100 Hz • stereo; 21.06 MB (22 081 306 B)]
09 Please Be Kind.flac [03:16.133; FLAC • 760 kbps • 16 bit \ 44100 Hz • stereo; 17.77 MB (18 637 480 B)]
10 He Was Too Good To Me.flac [02:43.133; FLAC • 743 kbps • 16 bit \ 44100 Hz • stereo; 14.46 MB (15 165 891 B)]
11 Angel Eyes.flac [02:43.333; FLAC • 707 kbps • 16 bit \ 44100 Hz • stereo; 13.78 MB (14 445 637 B)]
12 Something I Dreamed Last Night.flac [03:58.573; FLAC • 792 kbps • 16 bit \ 44100 Hz • stereo; 22.55 MB (23 647 400 B)]
Accuracy: -m0
Track 01 - By Myself - 100% CDDA [03:13:70]
Track 02 - The Thrill Is Gone - 100% CDDA [03:54:52]
Track 03 - How Long Has This Been Going On - 100% CDDA [04:08:48]
Track 04 - Do You Know Why? - 100% CDDA [02:54:15]
Track 05 - My Romance - 100% CDDA [03:55:30]
Track 06 - Isn't It Romantic - 100% CDDA [03:02:50]
Track 07 - If Love Is Good To Me - 100% CDDA [03:31:05]
Track 08 - When I Fall In Love - 100% CDDA [03:49:37]
Track 09 - Please Be Kind - 100% CDDA [03:16:10]
Track 10 - He Was Too Good To Me - 100% CDDA [02:43:10]
Track 11 - Angel Eyes - 100% CDDA [02:43:25]
Track 12 - Something I Dreamed Last Night - 99% CDDA [03:58:43]
————— Summary: —————
These tracks looks like CDDA with probability 100%.
————————————————————————————————————————————————————————————————————————
ANALYZER:
auCDtect: CD records authenticity detector, version 0.8.2
Copyright (c) 2004 Oleg Berngardt. All rights reserved.
Copyright (c) 2004 Alexander Djourik. All rights reserved.
Time elapsed: 1 m 43 s
Log created at August 03, 2018 10:14:44
=== 4F7FDDBA438811E45D61C5DB48EC5040E96B0D9AAB304294CDB42D0BF449FAED ===
 
Скриншот спектра частот
Скачивание доступно после регистрации!!
Приватный:
Нет (DHT включён)
Размер:
228.38 Мб (239,469,669 байт) » файлов: 19
Участники:
0 раздают, 0 качают (0 участников всего)
Внешние участники:
5 раздают, 1 качают (6 участников всего) [ Обновить ]
07:50
13
Нет комментариев. Ваш будет первым!