Поиск

(Vocal Jazz) [CD] Arthur Prysock - All My Life (1976) - 2013, FLAC (tracks+.cue), lossless

(Vocal Jazz) [CD] Arthur Prysock - All My Life (1976) - 2013, FLAC (tracks+.cue), lossless
Треклист:
Arthur Prysock - All My Life (1976) Жанр: Vocal Jazz
Носитель: CD
Год издания: 2013
Издатель (лейбл): Big Break Records/Cherry Red Records
Номер по каталогу: CDBBR 0216
Аудиокодек: FLAC (*.flac)
Тип рипа: tracks+.cue
Битрейт аудио: lossless
Продолжительность: 43:54
Источник (релизер): ruskaval
Наличие сканов в содержимом раздачи: да
Треклист:
01. I Wancha Baby (6:53)
02. All My Life (5:47)
03. I Love Makin' Love To You (4:36)
04. Baby I'm The One (3:47)
05. When Love Is New (7:14)
06. One Broken Heart (4:59)
07. All I Need Is You Tonight (4:08)
08. This Is What You Mean To Me (3:10)
09. When Love Is New (Single Version) (3:22)
 
 
Несколько слов на английском
Arthur Prysock (born January 2nd 1929 in Spartanburg, South Carolina) had a long and varied career as a vocalist of high repute, lending his velvet baritone to jazz, blues, R&B, pop and disco, having been inspired by his musical hero Billy Eckstine.
Prysock was discovered by the jump blues band leader Buddy Johnson while living and working in Hartford CT, where he had honed his talents in several groups during his time off. Johnson installed Prysock as his lead male vocalist and they recorded several hits together for Decca in the 40’s before Arthur went solo, touring the chitlin circuit, sometimes accompanied by his brother Red Prysock, (an exhilarating tenor saxophonist) with whom he also recorded. Before long ‘I Didn’t Sleep A Wink Last Night’ gave Arthur his first solo R&B hit on Decca in 1952 charting at a high of #5, and cementing his reputation as a great balladeer.
During the late 50’s and early 60’s Arthur recorded several R&B hits for the Old Town label and in 1965 fulfilled a life-long dream recording with Count Basie, which started a fruitful relationship with the Verve label for the remainder of the decade.
The 1976 album ‘All My Life’ (R&B #36, Pop #153) heralded a return to prominence (and to his old label Old Town) for Prysock and exemplified his dexterity in tackling the new contemporary Philly Soul inspired disco style. The lead single ‘When Love Is New’ (R&B #10, Pop #64), a smooth, percussive disco-soul track with Prysock’s perfectly understated laid-back vocal was penned by legendary Philly International producers and song-writers Gamble & Huff, as was follow up single ‘I Wantcha Baby’ (R&B #43) which tells you everything you need to know about the tone of this underappreciated album. Another stand out is the title track ‘All My Life’, Prysock delivers a Barry White-esque impassioned croon over an up-tempo, uplifting solid dancefloor groove provided by this tracks songwriter, and producer of the album John Davis, along with his Monster Orchestra.
BBR is very proud to bring you ALL MY LIFE completely re-mastered and repackaged complete with extensive liner notes and bonus content.
ALL MY LIFE, released on CD for the first time, is a must have for all R&B, Disco and Philly Soul fans out there!

 
Лог создания рипа
Exact Audio Copy V1.0 beta 3 from 29. August 2011
EAC extraction logfile from 17. August 2014, 23:10
Arthur Prysock / All My Life
Used drive : TSSTcorp CDDVDW Adapter: 0 ID: 0
Read mode : Secure
Utilize accurate stream : Yes
Defeat audio cache : Yes
Make use of C2 pointers : No
Read offset correction : 6
Overread into Lead-In and Lead-Out : No
Fill up missing offset samples with silence : Yes
Delete leading and trailing silent blocks : No
Null samples used in CRC calculations : Yes
Used interface : Native Win32 interface for Win NT & 2000
Gap handling : Appended to previous track
Used output format : User Defined Encoder
Selected bitrate : 128 kBit/s
Quality : High
Add ID3 tag : No
Command line compressor : C:\Program Files (x86)\Exact Audio Copy\Flac\flac.exe
Additional command line options : -8 -V -T "ARTIST=%artist%" -T "TITLE=%title%" -T "ALBUM=%albumtitle%" -T "DATE=%year%" -T "TRACKNUMBER=%tracknr%" -T "TOTALTRACKS=%numtracks%" -T "GENRE=%genre%" -T "ALBUMARTIST=%albumartist%" -T "ALBUM ARTIST=%albumartist%" -T "COMMENT=EAC Secure Mode, Test & Copy, AccurateRip, FLAC -8" %source%
TOC of the extracted CD
Track | Start | Length | Start sector | End sector
---------------------------------------------------------
1 | 0:00.00 | 6:52.49 | 0 | 30948
2 | 6:52.49 | 5:46.43 | 30949 | 56941
3 | 12:39.17 | 4:35.55 | 56942 | 77621
4 | 17:14.72 | 3:46.45 | 77622 | 94616
5 | 21:01.42 | 7:14.25 | 94617 | 127191
6 | 28:15.67 | 4:58.43 | 127192 | 149584
7 | 33:14.35 | 4:08.37 | 149585 | 168221
8 | 37:22.72 | 3:09.44 | 168222 | 182440
9 | 40:32.41 | 3:21.71 | 182441 | 197586
Track 1
Filename C:\AddisistheGodFlac\01 - I Wancha Baby.wav
Pre-gap length 0:00:02.00
Peak level 96.6 %
Extraction speed 2.6 X
Track quality 99.9 %
Test CRC DE7894BF
Copy CRC DE7894BF
Accurately ripped (confidence 2) [5EAA072B] (AR v2)
Copy OK
Track 2
Filename C:\AddisistheGodFlac\02 - All My Life.wav
Pre-gap length 0:00:01.73
Peak level 96.6 %
Extraction speed 2.9 X
Track quality 99.9 %
Test CRC 839111C5
Copy CRC 839111C5
Accurately ripped (confidence 2) [8835D776] (AR v2)
Copy OK
Track 3
Filename C:\AddisistheGodFlac\03 - I Love Makin' Love To You.wav
Pre-gap length 0:00:01.73
Peak level 96.6 %
Extraction speed 3.6 X
Track quality 100.0 %
Test CRC A82A5E47
Copy CRC A82A5E47
Accurately ripped (confidence 2) [96E0D1A6] (AR v2)
Copy OK
Track 4
Filename C:\AddisistheGodFlac\04 - Baby I'm The One.wav
Pre-gap length 0:00:01.74
Peak level 96.6 %
Extraction speed 3.7 X
Track quality 100.0 %
Test CRC 03BBBEB0
Copy CRC 03BBBEB0
Accurately ripped (confidence 2) [C69AFAB3] (AR v2)
Copy OK
Track 5
Filename C:\AddisistheGodFlac\05 - When Love Is New.wav
Pre-gap length 0:00:01.73
Peak level 96.6 %
Extraction speed 4.3 X
Track quality 100.0 %
Test CRC 21082C84
Copy CRC 21082C84
Accurately ripped (confidence 2) [6F56E29E] (AR v2)
Copy OK
Track 6
Filename C:\AddisistheGodFlac\06 - One Broken Heart.wav
Pre-gap length 0:00:01.73
Peak level 96.6 %
Extraction speed 4.5 X
Track quality 100.0 %
Test CRC 7E9AB881
Copy CRC 7E9AB881
Accurately ripped (confidence 2) [D03F197F] (AR v2)
Copy OK
Track 7
Filename C:\AddisistheGodFlac\07 - All I Need Is You Tonight.wav
Pre-gap length 0:00:01.73
Peak level 96.6 %
Extraction speed 4.5 X
Track quality 100.0 %
Test CRC 62C85E77
Copy CRC 62C85E77
Accurately ripped (confidence 2) [6D3B5EBC] (AR v2)
Copy OK
Track 8
Filename C:\AddisistheGodFlac\08 - This Is What You Mean To Me.wav
Pre-gap length 0:00:01.48
Peak level 96.6 %
Extraction speed 3.5 X
Track quality 99.9 %
Test CRC 7EED7C87
Copy CRC 7EED7C87
Accurately ripped (confidence 2) [E1AF625C] (AR v2)
Copy OK
Track 9
Filename C:\AddisistheGodFlac\09 - When Love Is New (Single Version).wav
Pre-gap length 0:00:03.73
Peak level 96.6 %
Extraction speed 4.7 X
Track quality 100.0 %
Test CRC E6221204
Copy CRC E6221204
Accurately ripped (confidence 2) [953C13F6] (AR v2)
Copy OK
All tracks accurately ripped
No errors occurred
End of status report
==== Log checksum D0899A89943C29F1C31A339868EF94A5275AD9F92BE33D0347D1B932A8B58687 ====
 
Содержание индексной карты (.CUE)
REM GENRE Soul
REM DATE 1976
REM DISCID 780A4A09
REM COMMENT "ExactAudioCopy v1.0b3"
PERFORMER "Arthur Prysock"
TITLE "All My Life"
FILE "01 - I Wancha Baby.wav" WAVE
TRACK 01 AUDIO
TITLE "I Wancha Baby"
PERFORMER "Arthur Prysock"
INDEX 01 00:00:00
TRACK 02 AUDIO
TITLE "All My Life"
PERFORMER "Arthur Prysock"
INDEX 00 06:50:51
FILE "02 - All My Life.wav" WAVE
INDEX 01 00:00:00
TRACK 03 AUDIO
TITLE "I Love Makin' Love To You"
PERFORMER "Arthur Prysock"
INDEX 00 05:44:45
FILE "03 - I Love Makin' Love To You.wav" WAVE
INDEX 01 00:00:00
TRACK 04 AUDIO
TITLE "Baby I'm The One"
PERFORMER "Arthur Prysock"
INDEX 00 04:33:56
FILE "04 - Baby I'm The One.wav" WAVE
INDEX 01 00:00:00
TRACK 05 AUDIO
TITLE "When Love Is New"
PERFORMER "Arthur Prysock"
INDEX 00 03:44:47
FILE "05 - When Love Is New.wav" WAVE
INDEX 01 00:00:00
TRACK 06 AUDIO
TITLE "One Broken Heart"
PERFORMER "Arthur Prysock"
INDEX 00 07:12:27
FILE "06 - One Broken Heart.wav" WAVE
INDEX 01 00:00:00
TRACK 07 AUDIO
TITLE "All I Need Is You Tonight"
PERFORMER "Arthur Prysock"
INDEX 00 04:56:45
FILE "07 - All I Need Is You Tonight.wav" WAVE
INDEX 01 00:00:00
TRACK 08 AUDIO
TITLE "This Is What You Mean To Me"
PERFORMER "Arthur Prysock"
INDEX 00 04:06:64
FILE "08 - This Is What You Mean To Me.wav" WAVE
INDEX 01 00:00:00
TRACK 09 AUDIO
TITLE "When Love Is New (Single Version)"
PERFORMER "Arthur Prysock"
INDEX 00 03:05:46
FILE "09 - When Love Is New (Single Version).wav" WAVE
INDEX 01 00:00:00
Download available for power users only.
04:41
308
Нет комментариев. Ваш будет первым!