Вы используете незарегистрированную версию компонента "Вкладки"!

Поиск

(Vocal Jazz) [CD] Annette Hanshaw - Volume 5: 1928-1929 - 1999, FLAC (tracks+.cue), lossless

(Vocal Jazz) [CD] Annette Hanshaw - Volume 5: 1928-1929 - 1999, FLAC (tracks+.cue), lossless
Треклист:
Annette Hanshaw / Volume 5: 1928-1929
Жанр: Vocal Jazz
Носитель: CD
Страна-производитель диска (релиза): Canada
Год издания: 1999
Издатель (лейбл): Sensation Records
Номер по каталогу: 767 748 022-2
Страна исполнителя (группы): US
Аудиокодек: FLAC (*.flac)
Тип рипа: tracks+.cue
Битрейт аудио: lossless
Продолжительность: 1:13:30
Источник (релизер): what.cd
Наличие сканов в содержимом раздачи: да
Треклист:
01 - Annette Hanshaw - Was It a Dream? (2:34)
02 - Annette Hanshaw - For Old Times' Sake (2:58)
03 - Annette Hanshaw - I Can't Give You Anything But Love (3:00)
04 - Annette Hanshaw - I Must Have That Man (2:59)
05 - Annette Hanshaw - Get Out and Get Under the Moon (2:57)
06 - Annette Hanshaw - Lonely Nights in Hawaii (2:52)
07 - Annette Hanshaw - Chiquita (2:56)
08 - Annette Hanshaw - Maui Girl (2:47)
09 - Annette Hanshaw - That's Just My Way of Forgetting You (3:15)
10 - Annette Hanshaw - High Upon a Hill-Top (2:48)
11 - Annette Hanshaw - If You Want the Rainbow You Must Have the Rain (2:52)
12 - Annette Hanshaw - My Blackbirds Are Bluebirds Now (2:43)
13 - Annette Hanshaw - You're the Cream in My Coffee (2:59)
14 - Annette Hanshaw - My Inspiration Is You (3:02)
15 - Annette Hanshaw - Sonny Boy (2:59)
16 - Annette Hanshaw - Sweet Lei Lehua (2:58)
17 - Annette Hanshaw - I Wanna Be Loved by You (2:37)
18 - Annette Hanshaw - Is There Anything Wrong in That? (3:08)
19 - Annette Hanshaw - Carolina Moon (2:56)
20 - Annette Hanshaw - Maui Chimes (2:48)
21 - Annette Hanshaw - I Faw' Down an' Go Boom! (3:05)
22 - Annette Hanshaw - Don't Be Like That (2:57)
23 - Annette Hanshaw - In a Great Big Way (Take 2) (3:10)
24 - Annette Hanshaw - In a Great Big Way (Take 3) (3:08)
25 - Annette Hanshaw - When the World Is at Rest (3:01)
Amazon.com
 
Лог создания рипа
X Lossless Decoder version 20090320 (105.1)
XLD extraction logfile from 2009-04-04 13:19:06 -0400
Annette Hanshaw / Volume 5- 1928-1929
Used drive : MATSHITA DVD-R UJ-857E (revision ZF1E)
Use cdparanoia mode : YES (CDParanoia III 10.2 engine)
Disable audio cache : OK for the drive with cache less than 2750KB
Make use of C2 pointers : NO
Read offset correction : 102
Max retry count : 100
TOC of the extracted CD
Track | Start | Length | Start sector | End sector
---------------------------------------------------------
1 | 00:00:00 | 02:33:53 | 0 | 11527
2 | 02:33:53 | 02:58:01 | 11528 | 24878
3 | 05:31:54 | 02:59:43 | 24879 | 38346
4 | 08:31:22 | 02:59:28 | 38347 | 51799
5 | 11:30:50 | 02:57:31 | 51800 | 65105
6 | 14:28:06 | 02:51:44 | 65106 | 77974
7 | 17:19:50 | 02:55:55 | 77975 | 91154
8 | 20:15:30 | 02:46:57 | 91155 | 103661
9 | 23:02:12 | 03:14:69 | 103662 | 118280
10 | 26:17:06 | 02:47:68 | 118281 | 130873
11 | 29:04:74 | 02:52:07 | 130874 | 143780
12 | 31:57:06 | 02:43:28 | 143781 | 156033
13 | 34:40:34 | 02:59:14 | 156034 | 169472
14 | 37:39:48 | 03:02:17 | 169473 | 183139
15 | 40:41:65 | 02:58:63 | 183140 | 196552
16 | 43:40:53 | 02:58:02 | 196553 | 209904
17 | 46:38:55 | 02:37:02 | 209905 | 221681
18 | 49:15:57 | 03:08:32 | 221682 | 235813
19 | 52:24:14 | 02:56:08 | 235814 | 249021
20 | 55:20:22 | 02:48:01 | 249022 | 261622
21 | 58:08:23 | 03:05:15 | 261623 | 275512
22 | 61:13:38 | 02:57:27 | 275513 | 288814
23 | 64:10:65 | 03:09:55 | 288815 | 303044
24 | 67:20:45 | 03:07:52 | 303045 | 317121
25 | 70:28:22 | 03:01:30 | 317122 | 330726
All Tracks
Album gain : -2.44 dB
Peak : 0.939880
Track 01
Filename : /Users/skipperry/Desktop/Annette Hanshaw - Volume 5- 1928-1929 (1999) [FLAC]/01 - Was It a Dream.flac
Track gain : -1.28 dB
Peak : 0.637756
CRC32 hash (test run) : C114C5A4
CRC32 hash : C114C5A4
CRC32 hash (skip zero) : CFD06F89
AccurateRip signature : 4DB17D74
->Track not present in AccurateRip database.
Statistics
Read error : 0
Skipped (treated as error) : 0
Edge jitter error (maybe fixed) : 0
Atom jitter error (maybe fixed) : 0
Drift error (maybe fixed) : 0
Dropped bytes error (maybe fixed) : 0
Duplicated bytes error (maybe fixed) : 0
Inconsistency in error sectors : 0
Track 02
Filename : /Users/skipperry/Desktop/Annette Hanshaw - Volume 5- 1928-1929 (1999) [FLAC]/02 - For Old Times' Sake.flac
Track gain : -0.13 dB
Peak : 0.504547
CRC32 hash (test run) : 7439E0B6
CRC32 hash : 7439E0B6
CRC32 hash (skip zero) : A4E34640
AccurateRip signature : 09F52F09
->Track not present in AccurateRip database.
Statistics
Read error : 0
Skipped (treated as error) : 0
Edge jitter error (maybe fixed) : 0
Atom jitter error (maybe fixed) : 0
Drift error (maybe fixed) : 0
Dropped bytes error (maybe fixed) : 0
Duplicated bytes error (maybe fixed) : 0
Inconsistency in error sectors : 0
Track 03
Filename : /Users/skipperry/Desktop/Annette Hanshaw - Volume 5- 1928-1929 (1999) [FLAC]/03 - I Can't Give You Anything But Love.flac
Track gain : -2.84 dB
Peak : 0.864105
CRC32 hash (test run) : 5DBA3647
CRC32 hash : 5DBA3647
CRC32 hash (skip zero) : E57991DC
AccurateRip signature : 984EC424
->Track not present in AccurateRip database.
Statistics
Read error : 0
Skipped (treated as error) : 0
Edge jitter error (maybe fixed) : 0
Atom jitter error (maybe fixed) : 0
Drift error (maybe fixed) : 0
Dropped bytes error (maybe fixed) : 0
Duplicated bytes error (maybe fixed) : 0
Inconsistency in error sectors : 0
Track 04
Filename : /Users/skipperry/Desktop/Annette Hanshaw - Volume 5- 1928-1929 (1999) [FLAC]/04 - I Must Have That Man.flac
Track gain : -2.90 dB
Peak : 0.904053
CRC32 hash (test run) : 8B480B40
CRC32 hash : 8B480B40
CRC32 hash (skip zero) : 2E70C87A
AccurateRip signature : 6684C42D
->Track not present in AccurateRip database.
Statistics
Read error : 0
Skipped (treated as error) : 0
Edge jitter error (maybe fixed) : 0
Atom jitter error (maybe fixed) : 0
Drift error (maybe fixed) : 0
Dropped bytes error (maybe fixed) : 0
Duplicated bytes error (maybe fixed) : 0
Inconsistency in error sectors : 0
Track 05
Filename : /Users/skipperry/Desktop/Annette Hanshaw - Volume 5- 1928-1929 (1999) [FLAC]/05 - Get Out and Get Under the Moon.flac
Track gain : -4.08 dB
Peak : 0.939880
CRC32 hash (test run) : 7DB78474
CRC32 hash : 7DB78474
CRC32 hash (skip zero) : ACA5F9EE
AccurateRip signature : 13A2A435
->Track not present in AccurateRip database.
Statistics
Read error : 0
Skipped (treated as error) : 0
Edge jitter error (maybe fixed) : 0
Atom jitter error (maybe fixed) : 0
Drift error (maybe fixed) : 0
Dropped bytes error (maybe fixed) : 0
Duplicated bytes error (maybe fixed) : 0
Inconsistency in error sectors : 0
Track 06
Filename : /Users/skipperry/Desktop/Annette Hanshaw - Volume 5- 1928-1929 (1999) [FLAC]/06 - Lonely Nights in Hawaii.flac
Track gain : -1.24 dB
Peak : 0.641144
CRC32 hash (test run) : 85ED3994
CRC32 hash : 85ED3994
CRC32 hash (skip zero) : 91A23FD4
AccurateRip signature : 45ED7CFD
->Track not present in AccurateRip database.
Statistics
Read error : 0
Skipped (treated as error) : 0
Edge jitter error (maybe fixed) : 0
Atom jitter error (maybe fixed) : 0
Drift error (maybe fixed) : 0
Dropped bytes error (maybe fixed) : 0
Duplicated bytes error (maybe fixed) : 0
Inconsistency in error sectors : 0
Track 07
Filename : /Users/skipperry/Desktop/Annette Hanshaw - Volume 5- 1928-1929 (1999) [FLAC]/07 - Chiquita.flac
Track gain : -0.06 dB
Peak : 0.745300
CRC32 hash (test run) : 05709DA3
CRC32 hash : 05709DA3
CRC32 hash (skip zero) : D88CEC18
AccurateRip signature : A9A50BBF
->Track not present in AccurateRip database.
Statistics
Read error : 0
Skipped (treated as error) : 0
Edge jitter error (maybe fixed) : 0
Atom jitter error (maybe fixed) : 0
Drift error (maybe fixed) : 0
Dropped bytes error (maybe fixed) : 0
Duplicated bytes error (maybe fixed) : 0
Inconsistency in error sectors : 0
Track 08
Filename : /Users/skipperry/Desktop/Annette Hanshaw - Volume 5- 1928-1929 (1999) [FLAC]/08 - Maui Girl.flac
Track gain : -0.74 dB
Peak : 0.682465
CRC32 hash (test run) : 4554C418
CRC32 hash : 4554C418
CRC32 hash (skip zero) : 91AA036D
AccurateRip signature : 8F9B45FE
->Track not present in AccurateRip database.
Statistics
Read error : 0
Skipped (treated as error) : 0
Edge jitter error (maybe fixed) : 0
Atom jitter error (maybe fixed) : 0
Drift error (maybe fixed) : 0
Dropped bytes error (maybe fixed) : 0
Duplicated bytes error (maybe fixed) : 0
Inconsistency in error sectors : 0
Track 09
Filename : /Users/skipperry/Desktop/Annette Hanshaw - Volume 5- 1928-1929 (1999) [FLAC]/09 - That's Just My Way of Forgetting You.flac
Track gain : -3.36 dB
Peak : 0.811340
CRC32 hash (test run) : 13EC9573
CRC32 hash : 13EC9573
CRC32 hash (skip zero) : F59471C1
AccurateRip signature : 26C53AF6
->Track not present in AccurateRip database.
Statistics
Read error : 0
Skipped (treated as error) : 0
Edge jitter error (maybe fixed) : 0
Atom jitter error (maybe fixed) : 0
Drift error (maybe fixed) : 0
Dropped bytes error (maybe fixed) : 0
Duplicated bytes error (maybe fixed) : 0
Inconsistency in error sectors : 0
Track 10
Filename : /Users/skipperry/Desktop/Annette Hanshaw - Volume 5- 1928-1929 (1999) [FLAC]/10 - High Upon a Hill-Top.flac
Track gain : -2.17 dB
Peak : 0.791748
CRC32 hash (test run) : A757235E
CRC32 hash : A757235E
CRC32 hash (skip zero) : CE6C46FB
AccurateRip signature : C9E449B5
->Track not present in AccurateRip database.
Statistics
Read error : 0
Skipped (treated as error) : 0
Edge jitter error (maybe fixed) : 0
Atom jitter error (maybe fixed) : 0
Drift error (maybe fixed) : 0
Dropped bytes error (maybe fixed) : 0
Duplicated bytes error (maybe fixed) : 0
Inconsistency in error sectors : 0
Track 11
Filename : /Users/skipperry/Desktop/Annette Hanshaw - Volume 5- 1928-1929 (1999) [FLAC]/11 - If You Want the Rainbow You Must Have the Rain.flac
Track gain : -1.01 dB
Peak : 0.565460
CRC32 hash (test run) : DF28CB43
CRC32 hash : DF28CB43
CRC32 hash (skip zero) : A3E39ED4
AccurateRip signature : 433214C0
->Track not present in AccurateRip database.
Statistics
Read error : 0
Skipped (treated as error) : 0
Edge jitter error (maybe fixed) : 0
Atom jitter error (maybe fixed) : 0
Drift error (maybe fixed) : 0
Dropped bytes error (maybe fixed) : 0
Duplicated bytes error (maybe fixed) : 0
Inconsistency in error sectors : 0
Track 12
Filename : /Users/skipperry/Desktop/Annette Hanshaw - Volume 5- 1928-1929 (1999) [FLAC]/12 - My Blackbirds Are Bluebirds Now.flac
Track gain : -1.74 dB
Peak : 0.730652
CRC32 hash (test run) : 23DA9A7A
CRC32 hash : 23DA9A7A
CRC32 hash (skip zero) : 43541457
AccurateRip signature : C910E96B
->Track not present in AccurateRip database.
Statistics
Read error : 0
Skipped (treated as error) : 0
Edge jitter error (maybe fixed) : 0
Atom jitter error (maybe fixed) : 0
Drift error (maybe fixed) : 0
Dropped bytes error (maybe fixed) : 0
Duplicated bytes error (maybe fixed) : 0
Inconsistency in error sectors : 0
Track 13
Filename : /Users/skipperry/Desktop/Annette Hanshaw - Volume 5- 1928-1929 (1999) [FLAC]/13 - You're the Cream in My Coffee.flac
Track gain : -3.82 dB
Peak : 0.819733
CRC32 hash (test run) : 02FAF754
CRC32 hash : 02FAF754
CRC32 hash (skip zero) : 22823F37
AccurateRip signature : 1439E5D5
->Track not present in AccurateRip database.
Statistics
Read error : 0
Skipped (treated as error) : 0
Edge jitter error (maybe fixed) : 0
Atom jitter error (maybe fixed) : 0
Drift error (maybe fixed) : 0
Dropped bytes error (maybe fixed) : 0
Duplicated bytes error (maybe fixed) : 0
Inconsistency in error sectors : 0
Track 14
Filename : /Users/skipperry/Desktop/Annette Hanshaw - Volume 5- 1928-1929 (1999) [FLAC]/14 - My Inspiration is You.flac
Track gain : -5.02 dB
Peak : 0.882751
CRC32 hash (test run) : BA730195
CRC32 hash : BA730195
CRC32 hash (skip zero) : BB5C4D58
AccurateRip signature : 8CD2388C
->Track not present in AccurateRip database.
Statistics
Read error : 0
Skipped (treated as error) : 0
Edge jitter error (maybe fixed) : 0
Atom jitter error (maybe fixed) : 0
Drift error (maybe fixed) : 0
Dropped bytes error (maybe fixed) : 0
Duplicated bytes error (maybe fixed) : 0
Inconsistency in error sectors : 0
Track 15
Filename : /Users/skipperry/Desktop/Annette Hanshaw - Volume 5- 1928-1929 (1999) [FLAC]/15 - Sonny Boy.flac
Track gain : -0.89 dB
Peak : 0.769318
CRC32 hash (test run) : CE48338A
CRC32 hash : CE48338A
CRC32 hash (skip zero) : 211DED43
AccurateRip signature : 323E413C
->Track not present in AccurateRip database.
Statistics
Read error : 0
Skipped (treated as error) : 0
Edge jitter error (maybe fixed) : 0
Atom jitter error (maybe fixed) : 0
Drift error (maybe fixed) : 0
Dropped bytes error (maybe fixed) : 0
Duplicated bytes error (maybe fixed) : 0
Inconsistency in error sectors : 0
Track 16
Filename : /Users/skipperry/Desktop/Annette Hanshaw - Volume 5- 1928-1929 (1999) [FLAC]/16 - Sweet Lei Lehua.flac
Track gain : 0.34 dB
Peak : 0.650330
CRC32 hash (test run) : C4615316
CRC32 hash : C4615316
CRC32 hash (skip zero) : 72BC0147
AccurateRip signature : 5C993C0D
->Track not present in AccurateRip database.
Statistics
Read error : 0
Skipped (treated as error) : 0
Edge jitter error (maybe fixed) : 0
Atom jitter error (maybe fixed) : 0
Drift error (maybe fixed) : 0
Dropped bytes error (maybe fixed) : 0
Duplicated bytes error (maybe fixed) : 0
Inconsistency in error sectors : 0
Track 17
Filename : /Users/skipperry/Desktop/Annette Hanshaw - Volume 5- 1928-1929 (1999) [FLAC]/17 - I Wanna Be Loved By You.flac
Track gain : -2.11 dB
Peak : 0.828979
CRC32 hash (test run) : F8D113C5
CRC32 hash : F8D113C5
CRC32 hash (skip zero) : FB6E51BE
AccurateRip signature : 922DC4DA
->Track not present in AccurateRip database.
Statistics
Read error : 0
Skipped (treated as error) : 0
Edge jitter error (maybe fixed) : 0
Atom jitter error (maybe fixed) : 0
Drift error (maybe fixed) : 0
Dropped bytes error (maybe fixed) : 0
Duplicated bytes error (maybe fixed) : 0
Inconsistency in error sectors : 0
Track 18
Filename : /Users/skipperry/Desktop/Annette Hanshaw - Volume 5- 1928-1929 (1999) [FLAC]/18 - Is There Anything Wrong in That.flac
Track gain : -0.03 dB
Peak : 0.786865
CRC32 hash (test run) : 40513395
CRC32 hash : 40513395
CRC32 hash (skip zero) : 4250DEC9
AccurateRip signature : A07E4F9F
->Track not present in AccurateRip database.
Statistics
Read error : 0
Skipped (treated as error) : 0
Edge jitter error (maybe fixed) : 0
Atom jitter error (maybe fixed) : 0
Drift error (maybe fixed) : 0
Dropped bytes error (maybe fixed) : 0
Duplicated bytes error (maybe fixed) : 0
Inconsistency in error sectors : 0
Track 19
Filename : /Users/skipperry/Desktop/Annette Hanshaw - Volume 5- 1928-1929 (1999) [FLAC]/19 - Carolina Moon.flac
Track gain : -2.51 dB
Peak : 0.868011
CRC32 hash (test run) : D54FE22F
CRC32 hash : D54FE22F
CRC32 hash (skip zero) : 8F381FFA
AccurateRip signature : B8B9D7D7
->Track not present in AccurateRip database.
Statistics
Read error : 0
Skipped (treated as error) : 0
Edge jitter error (maybe fixed) : 0
Atom jitter error (maybe fixed) : 0
Drift error (maybe fixed) : 0
Dropped bytes error (maybe fixed) : 0
Duplicated bytes error (maybe fixed) : 0
Inconsistency in error sectors : 0
Track 20
Filename : /Users/skipperry/Desktop/Annette Hanshaw - Volume 5- 1928-1929 (1999) [FLAC]/20 - Maui Chimes.flac
Track gain : -2.52 dB
Peak : 0.886078
CRC32 hash (test run) : FC0996C8
CRC32 hash : FC0996C8
CRC32 hash (skip zero) : B9A48965
AccurateRip signature : 65F60436
->Track not present in AccurateRip database.
Statistics
Read error : 0
Skipped (treated as error) : 0
Edge jitter error (maybe fixed) : 0
Atom jitter error (maybe fixed) : 0
Drift error (maybe fixed) : 0
Dropped bytes error (maybe fixed) : 0
Duplicated bytes error (maybe fixed) : 0
Inconsistency in error sectors : 0
Track 21
Filename : /Users/skipperry/Desktop/Annette Hanshaw - Volume 5- 1928-1929 (1999) [FLAC]/21 - I Faw' Down an' Go Boom.flac
Track gain : -3.63 dB
Peak : 0.826538
CRC32 hash (test run) : 2050DCBC
CRC32 hash : 2050DCBC
CRC32 hash (skip zero) : 4F4BD67F
AccurateRip signature : 04620702
->Track not present in AccurateRip database.
Statistics
Read error : 0
Skipped (treated as error) : 0
Edge jitter error (maybe fixed) : 0
Atom jitter error (maybe fixed) : 0
Drift error (maybe fixed) : 0
Dropped bytes error (maybe fixed) : 0
Duplicated bytes error (maybe fixed) : 0
Inconsistency in error sectors : 0
Track 22
Filename : /Users/skipperry/Desktop/Annette Hanshaw - Volume 5- 1928-1929 (1999) [FLAC]/22 - Don't Be Like That.flac
Track gain : -2.18 dB
Peak : 0.791199
CRC32 hash (test run) : 1F69ED62
CRC32 hash : 1F69ED62
CRC32 hash (skip zero) : E4D5B57B
AccurateRip signature : B57045A2
->Track not present in AccurateRip database.
Statistics
Read error : 0
Skipped (treated as error) : 0
Edge jitter error (maybe fixed) : 0
Atom jitter error (maybe fixed) : 0
Drift error (maybe fixed) : 0
Dropped bytes error (maybe fixed) : 0
Duplicated bytes error (maybe fixed) : 0
Inconsistency in error sectors : 0
Track 23
Filename : /Users/skipperry/Desktop/Annette Hanshaw - Volume 5- 1928-1929 (1999) [FLAC]/23 - In a Great Big Way (Take 2).flac
Track gain : -0.52 dB
Peak : 0.743225
CRC32 hash (test run) : A01425C0
CRC32 hash : A01425C0
CRC32 hash (skip zero) : 5F646CC2
AccurateRip signature : 9118162C
->Track not present in AccurateRip database.
Statistics
Read error : 0
Skipped (treated as error) : 0
Edge jitter error (maybe fixed) : 0
Atom jitter error (maybe fixed) : 0
Drift error (maybe fixed) : 0
Dropped bytes error (maybe fixed) : 0
Duplicated bytes error (maybe fixed) : 0
Inconsistency in error sectors : 0
Track 24
Filename : /Users/skipperry/Desktop/Annette Hanshaw - Volume 5- 1928-1929 (1999) [FLAC]/24 - In a Great Big Way (Take 3).flac
Track gain : -1.28 dB
Peak : 0.816193
CRC32 hash (test run) : A75CD5C6
CRC32 hash : A75CD5C6
CRC32 hash (skip zero) : ECECB234
AccurateRip signature : 15C0389B
->Track not present in AccurateRip database.
Statistics
Read error : 0
Skipped (treated as error) : 0
Edge jitter error (maybe fixed) : 0
Atom jitter error (maybe fixed) : 0
Drift error (maybe fixed) : 0
Dropped bytes error (maybe fixed) : 0
Duplicated bytes error (maybe fixed) : 0
Inconsistency in error sectors : 0
Track 25
Filename : /Users/skipperry/Desktop/Annette Hanshaw - Volume 5- 1928-1929 (1999) [FLAC]/25 - When the World Is at Rest.flac
Track gain : 0.15 dB
Peak : 0.855255
CRC32 hash (test run) : 5690BC58
CRC32 hash : 5690BC58
CRC32 hash (skip zero) : C7F842B4
AccurateRip signature : B13006B2
->Track not present in AccurateRip database.
Statistics
Read error : 0
Skipped (treated as error) : 0
Edge jitter error (maybe fixed) : 0
Atom jitter error (maybe fixed) : 0
Drift error (maybe fixed) : 0
Dropped bytes error (maybe fixed) : 0
Duplicated bytes error (maybe fixed) : 0
Inconsistency in error sectors : 0
No errors occurred
End of status report
 
Содержание индексной карты (.CUE)
TITLE "Volume 5- 1928-1929"
PERFORMER "Annette Hanshaw"
REM GENRE "Jazz"
REM DATE 1999
FILE "01 - Was It a Dream.wav" WAVE
TRACK 01 AUDIO
TITLE "Was It a Dream"
PERFORMER "Annette Hanshaw"
INDEX 01 00:00:00
TRACK 02 AUDIO
TITLE "For Old Times' Sake"
PERFORMER "Annette Hanshaw"
INDEX 00 02:31:20
FILE "02 - For Old Times' Sake.wav" WAVE
INDEX 01 00:00:00
TRACK 03 AUDIO
TITLE "I Can't Give You Anything But Love"
PERFORMER "Annette Hanshaw"
INDEX 00 02:55:41
FILE "03 - I Can't Give You Anything But Love.wav" WAVE
INDEX 01 00:00:00
TRACK 04 AUDIO
TITLE "I Must Have That Man"
PERFORMER "Annette Hanshaw"
INDEX 00 02:56:27
FILE "04 - I Must Have That Man.wav" WAVE
INDEX 01 00:00:00
TRACK 05 AUDIO
TITLE "Get Out and Get Under the Moon"
PERFORMER "Annette Hanshaw"
INDEX 00 02:56:45
FILE "05 - Get Out and Get Under the Moon.wav" WAVE
INDEX 01 00:00:00
TRACK 06 AUDIO
TITLE "Lonely Nights in Hawaii"
PERFORMER "Annette Hanshaw"
INDEX 00 02:54:61
FILE "06 - Lonely Nights in Hawaii.wav" WAVE
INDEX 01 00:00:00
TRACK 07 AUDIO
TITLE "Chiquita"
PERFORMER "Annette Hanshaw"
INDEX 00 02:49:02
FILE "07 - Chiquita.wav" WAVE
INDEX 01 00:00:00
TRACK 08 AUDIO
TITLE "Maui Girl"
PERFORMER "Annette Hanshaw"
INDEX 00 02:53:08
FILE "08 - Maui Girl.wav" WAVE
INDEX 01 00:00:00
TRACK 09 AUDIO
TITLE "That's Just My Way of Forgetting You"
PERFORMER "Annette Hanshaw"
INDEX 00 02:44:02
FILE "09 - That's Just My Way of Forgetting You.wav" WAVE
INDEX 01 00:00:00
TRACK 10 AUDIO
TITLE "High Upon a Hill-Top"
PERFORMER "Annette Hanshaw"
INDEX 00 03:12:15
FILE "10 - High Upon a Hill-Top.wav" WAVE
INDEX 01 00:00:00
TRACK 11 AUDIO
TITLE "If You Want the Rainbow You Must Have the Rain"
PERFORMER "Annette Hanshaw"
INDEX 00 02:45:14
FILE "11 - If You Want the Rainbow You Must Have the Rain.wav" WAVE
INDEX 01 00:00:00
TRACK 12 AUDIO
TITLE "My Blackbirds Are Bluebirds Now"
PERFORMER "Annette Hanshaw"
INDEX 00 02:49:33
FILE "12 - My Blackbirds Are Bluebirds Now.wav" WAVE
INDEX 01 00:00:00
TRACK 13 AUDIO
TITLE "You're the Cream in My Coffee"
PERFORMER "Annette Hanshaw"
INDEX 00 02:40:46
FILE "13 - You're the Cream in My Coffee.wav" WAVE
INDEX 01 00:00:00
TRACK 14 AUDIO
TITLE "My Inspiration is You"
PERFORMER "Annette Hanshaw"
INDEX 00 02:56:27
FILE "14 - My Inspiration is You.wav" WAVE
INDEX 01 00:00:00
TRACK 15 AUDIO
TITLE "Sonny Boy"
PERFORMER "Annette Hanshaw"
INDEX 00 02:59:17
FILE "15 - Sonny Boy.wav" WAVE
INDEX 01 00:00:00
TRACK 16 AUDIO
TITLE "Sweet Lei Lehua"
PERFORMER "Annette Hanshaw"
INDEX 00 02:55:50
FILE "16 - Sweet Lei Lehua.wav" WAVE
INDEX 01 00:00:00
TRACK 17 AUDIO
TITLE "I Wanna Be Loved By You"
PERFORMER "Annette Hanshaw"
INDEX 00 02:55:14
FILE "17 - I Wanna Be Loved By You.wav" WAVE
INDEX 01 00:00:00
TRACK 18 AUDIO
TITLE "Is There Anything Wrong in That"
PERFORMER "Annette Hanshaw"
INDEX 00 02:34:08
FILE "18 - Is There Anything Wrong in That.wav" WAVE
INDEX 01 00:00:00
TRACK 19 AUDIO
TITLE "Carolina Moon"
PERFORMER "Annette Hanshaw"
INDEX 00 03:05:41
FILE "19 - Carolina Moon.wav" WAVE
INDEX 01 00:00:00
TRACK 20 AUDIO
TITLE "Maui Chimes"
PERFORMER "Annette Hanshaw"
INDEX 00 02:53:22
FILE "20 - Maui Chimes.wav" WAVE
INDEX 01 00:00:00
TRACK 21 AUDIO
TITLE "I Faw' Down an' Go Boom"
PERFORMER "Annette Hanshaw"
INDEX 00 02:45:27
FILE "21 - I Faw' Down an' Go Boom.wav" WAVE
INDEX 01 00:00:00
TRACK 22 AUDIO
TITLE "Don't Be Like That"
PERFORMER "Annette Hanshaw"
INDEX 00 03:02:42
FILE "22 - Don't Be Like That.wav" WAVE
INDEX 01 00:00:00
TRACK 23 AUDIO
TITLE "In a Great Big Way (Take 2)"
PERFORMER "Annette Hanshaw"
INDEX 00 02:54:45
FILE "23 - In a Great Big Way (Take 2).wav" WAVE
INDEX 01 00:00:00
TRACK 24 AUDIO
TITLE "In a Great Big Way (Take 3)"
PERFORMER "Annette Hanshaw"
INDEX 00 03:06:60
FILE "24 - In a Great Big Way (Take 3).wav" WAVE
INDEX 01 00:00:00
TRACK 25 AUDIO
TITLE "When the World Is at Rest"
PERFORMER "Annette Hanshaw"
INDEX 00 03:04:62
FILE "25 - When the World Is at Rest.wav" WAVE
INDEX 01 00:00:00
Any questions - support@pro-jazz.com. Есть вопросы - support@pro-jazz.com
22:26
290
Нет комментариев. Ваш будет первым!