Вы используете незарегистрированную версию компонента "Вкладки"!

Поиск

(Vocal Jazz) Carol Welsman - Memories Of You: Carol Welsman sings Benny Goodman and Peggy Lee - 2009, FLAC (tracks+.cue), lossless

(Vocal Jazz) Carol Welsman - Memories Of You: Carol Welsman sings Benny Goodman and Peggy Lee - 2009, FLAC (tracks+.cue), lossless
Треклист:
•Carol Welsman - Memories Of You: Carol Welsman sings Benny Goodman and Peggy Lee•
Жанр: Vocal Jazz
Год издания диска: 2009
Издатель (лейбл): All Art Production
Номер по каталогу: MZCF-1151
Аудиокодек: FLAC (*.flac)
Тип рипа: tracks+.cue
Битрейт аудио: lossless
Продолжительность: 01:00:50
Источник (релизер): Рип с диска.
Наличие сканов в содержимом раздачи: да
Треклист:
01. Don't Be That Way
02. Why Don't You Do Right
03. Moonglow
04. Stompin' At The Savoy
05. As Time Goes By
06. When You're Smiling
07. Johnny Guitar
08. Fever
09. Goody Goody
10. The Very Thought Of You
11. On A Slow Boat To China
12. Memories Of You
13. Sing Sing Sing
14. Where Or When
15. More Than You Know
16. The Glory Of Love
 
Лог создания рипа
Exact Audio Copy V1.0 beta 3 from 29. August 2011
Отчёт EAC об извлечении, выполненном 5. марта 2012, 16:09
Carol Welsman / Memories Of You
Дисковод: Optiarc DVD RW AD-5200A Adapter: 0 ID: 1
Режим чтения : Достоверность
Использование точного потока : Да
Отключение кэша аудио : Да
Использование указателей C2 : Нет
Коррекция смещения при чтении : 48
Способность читать области Lead-in и Lead-out : Нет
Заполнение пропущенных сэмплов тишиной : Да
Удаление блоков с тишиной в начале и конце : Нет
При вычислениях CRC использовались нулевые сэмплы : Да
Интерфейс : Установленный внешний ASPI-интерфейс
Обработка зазоров : Добавлено к предыдущему треку
Выходной формат : Пользовательский кодировщик
Выбранный битрейт : 128 kBit/s
Качество : Высокий
Добавление ID3-тега : Нет
Утилита сжатия : C:\Program Files\Exact Audio Copy\Flac\flac.exe
Дополнительные параметры : -V -8 -T "Genre=%genre%" -T "Artist=%artist%" -T "Title=%title%" -T "Album=%albumtitle%" -T "Date=%year%" -T "Tracknumber=%tracknr%" -T "Comment=%comment%" %source%
TOC извлечённого CD
Трек | Старт | Длительность | Начальный сектор | Конечный сектор
---------------------------------------------------------------------
1 | 0:00.00 | 3:48.73 | 0 | 17172
2 | 3:48.73 | 2:45.08 | 17173 | 29555
3 | 6:34.06 | 3:28.42 | 29556 | 45197
4 | 10:02.48 | 3:10.02 | 45198 | 59449
5 | 13:12.50 | 5:47.29 | 59450 | 85503
6 | 19:00.04 | 4:49.47 | 85504 | 107225
7 | 23:49.51 | 4:10.47 | 107226 | 126022
8 | 28:00.23 | 4:02.23 | 126023 | 144195
9 | 32:02.46 | 2:53.59 | 144196 | 157229
10 | 34:56.30 | 3:08.62 | 157230 | 171391
11 | 38:05.17 | 2:39.09 | 171392 | 183325
12 | 40:44.26 | 4:50.49 | 183326 | 205124
13 | 45:35.00 | 3:03.10 | 205125 | 218859
14 | 48:38.10 | 3:50.38 | 218860 | 236147
15 | 52:28.48 | 4:15.34 | 236148 | 255306
16 | 56:44.07 | 4:06.38 | 255307 | 273794
Трек 1
Имя файла F:\2009.Carol Welsman - Memories Of You\01. Don't Be That Way.wav
Длина предзазора 0:00:02.00
Пиковый уровень 99.2 %
Скорость извлечения 2.2 X
Качество трека 100.0 %
CRC теста 365C905A
CRC копии 365C905A
Точность не определена (достоверность 5) [C1870AB7], AccurateRip вернул [0EDADC8E] (AR v2)
Копирование... OK
Трек 2
Имя файла F:\2009.Carol Welsman - Memories Of You\02. Why Don't You Do Right.wav
Длина предзазора 0:00:01.74
Пиковый уровень 98.8 %
Скорость извлечения 2.3 X
Качество трека 100.0 %
CRC теста 969B4DCB
CRC копии 969B4DCB
Точность не определена (достоверность 5) [BEE813D4], AccurateRip вернул [03A7EEE3] (AR v2)
Копирование... OK
Трек 3
Имя файла F:\2009.Carol Welsman - Memories Of You\03. Moonglow.wav
Длина предзазора 0:00:01.29
Пиковый уровень 99.2 %
Скорость извлечения 2.6 X
Качество трека 100.0 %
CRC теста DA07FBC6
CRC копии DA07FBC6
Точность не определена (достоверность 5) [7E2F7859], AccurateRip вернул [59C5CA84] (AR v2)
Копирование... OK
Трек 4
Имя файла F:\2009.Carol Welsman - Memories Of You\04. Stompin' At The Savoy.wav
Длина предзазора 0:00:00.27
Пиковый уровень 99.2 %
Скорость извлечения 2.7 X
Качество трека 100.0 %
CRC теста CC595C76
CRC копии CC595C76
Точность не определена (достоверность 5) [A5C80AF1], AccurateRip вернул [596F0460] (AR v2)
Копирование... OK
Трек 5
Имя файла F:\2009.Carol Welsman - Memories Of You\05. As Time Goes By.wav
Длина предзазора 0:00:01.10
Пиковый уровень 98.8 %
Скорость извлечения 3.1 X
Качество трека 100.0 %
CRC теста B6019B92
CRC копии B6019B92
Точность не определена (достоверность 5) [513B7C3B], AccurateRip вернул [EDE455DE] (AR v2)
Копирование... OK
Трек 6
Имя файла F:\2009.Carol Welsman - Memories Of You\06. When You're Smiling.wav
Длина предзазора 0:00:03.13
Пиковый уровень 99.2 %
Скорость извлечения 3.3 X
Качество трека 100.0 %
CRC теста 6E683159
CRC копии 6E683159
Точность не определена (достоверность 5) [D14C985D], AccurateRip вернул [E2B06899] (AR v2)
Копирование... OK
Трек 7
Имя файла F:\2009.Carol Welsman - Memories Of You\07. Johnny Guitar.wav
Длина предзазора 0:00:01.30
Пиковый уровень 98.8 %
Скорость извлечения 3.0 X
Качество трека 99.9 %
CRC теста 83A15677
CRC копии 83A15677
Точность не определена (достоверность 5) [7D6D5FBF], AccurateRip вернул [FBB77B6F] (AR v2)
Копирование... OK
Трек 8
Имя файла F:\2009.Carol Welsman - Memories Of You\08. Fever.wav
Длина предзазора 0:00:03.67
Пиковый уровень 99.2 %
Скорость извлечения 3.4 X
Качество трека 100.0 %
CRC теста CD97B47E
CRC копии CD97B47E
Точность не определена (достоверность 5) [761993B5], AccurateRip вернул [AAAFACA9] (AR v2)
Копирование... OK
Трек 9
Имя файла F:\2009.Carol Welsman - Memories Of You\09. Goody Goody.wav
Длина предзазора 0:00:02.37
Пиковый уровень 99.2 %
Скорость извлечения 3.3 X
Качество трека 100.0 %
CRC теста 186C62AF
CRC копии 186C62AF
Точность не определена (достоверность 5) [215F7EE0], AccurateRip вернул [BCBC2CE2] (AR v2)
Копирование... OK
Трек 10
Имя файла F:\2009.Carol Welsman - Memories Of You\10. The Very Thought Of You.wav
Длина предзазора 0:00:01.74
Пиковый уровень 98.8 %
Скорость извлечения 3.4 X
Качество трека 100.0 %
CRC теста 7D704AB7
CRC копии 7D704AB7
Точность не определена (достоверность 5) [1AF8674B], AccurateRip вернул [01222AA8] (AR v2)
Копирование... OK
Трек 11
Имя файла F:\2009.Carol Welsman - Memories Of You\11. On A Slow Boat To China.wav
Длина предзазора 0:00:00.64
Пиковый уровень 99.2 %
Скорость извлечения 3.3 X
Качество трека 100.0 %
CRC теста C8958B7E
CRC копии C8958B7E
Точность не определена (достоверность 5) [CE54219A], AccurateRip вернул [10AF0225] (AR v2)
Копирование... OK
Трек 12
Имя файла F:\2009.Carol Welsman - Memories Of You\12. Memories Of You.wav
Длина предзазора 0:00:01.28
Пиковый уровень 98.8 %
Скорость извлечения 3.6 X
Качество трека 100.0 %
CRC теста 89375AEF
CRC копии 89375AEF
Точность не определена (достоверность 5) [41CDBBE0], AccurateRip вернул [5BDD9F88] (AR v2)
Копирование... OK
Трек 13
Имя файла F:\2009.Carol Welsman - Memories Of You\13. Sing Sing Sing.wav
Длина предзазора 0:00:05.04
Пиковый уровень 98.8 %
Скорость извлечения 3.4 X
Качество трека 100.0 %
CRC теста 7945D1E2
CRC копии 7945D1E2
Точность не определена (достоверность 5) [4CA8C814], AccurateRip вернул [ABC8A3FC] (AR v2)
Копирование... OK
Трек 14
Имя файла F:\2009.Carol Welsman - Memories Of You\14. Where Or When.wav
Длина предзазора 0:00:02.00
Пиковый уровень 98.8 %
Скорость извлечения 3.5 X
Качество трека 100.0 %
CRC теста 9DA94189
CRC копии 9DA94189
Точность не определена (достоверность 5) [94CA2E52], AccurateRip вернул [28C90660] (AR v2)
Копирование... OK
Трек 15
Имя файла F:\2009.Carol Welsman - Memories Of You\15. More Than You Know.wav
Длина предзазора 0:00:01.33
Пиковый уровень 99.2 %
Скорость извлечения 3.5 X
Качество трека 100.0 %
CRC теста 3D0B6987
CRC копии 3D0B6987
Точность не определена (достоверность 5) [C198CC0D], AccurateRip вернул [4ADB8894] (AR v2)
Копирование... OK
Трек 16
Имя файла F:\2009.Carol Welsman - Memories Of You\16. The Glory Of Love.wav
Длина предзазора 0:00:00.34
Пиковый уровень 99.2 %
Скорость извлечения 3.5 X
Качество трека 100.0 %
CRC теста 97AB4B50
CRC копии 97AB4B50
Точность не определена (достоверность 5) [31319899], AccurateRip вернул [59496B03] (AR v2)
Копирование... OK
Ни один трек не прошёл проверки на точность
В вашей базе может быть иной вариант штамповки диска
Ошибок не произошло
Конец отчёта
==== Контрольная сумма отчёта 00F548C4468E475D71A825DE9401C27DCDFB07924C184960E10BBD67B420186B ====
 
Содержание индексной карты (.CUE)
REM GENRE Jazz
REM DATE 2009
REM DISCID D50E4210
REM COMMENT "ExactAudioCopy v1.0b3"
PERFORMER "Carol Welsman"
TITLE "Memories Of You "
FILE "01. Don't Be That Way.wav" WAVE
TRACK 01 AUDIO
TITLE "Don't Be That Way"
PERFORMER "Carol Welsman"
INDEX 01 00:00:00
TRACK 02 AUDIO
TITLE "Why Don't You Do Right"
PERFORMER "Carol Welsman"
INDEX 00 03:46:74
FILE "02. Why Don't You Do Right.wav" WAVE
INDEX 01 00:00:00
TRACK 03 AUDIO
TITLE "Moonglow"
PERFORMER "Carol Welsman"
INDEX 00 02:43:54
FILE "03. Moonglow.wav" WAVE
INDEX 01 00:00:00
TRACK 04 AUDIO
TITLE "Stompin' At The Savoy"
PERFORMER "Carol Welsman"
INDEX 00 03:28:15
FILE "04. Stompin' At The Savoy.wav" WAVE
INDEX 01 00:00:00
TRACK 05 AUDIO
TITLE "As Time Goes By"
PERFORMER "Carol Welsman"
INDEX 00 03:08:67
FILE "05. As Time Goes By.wav" WAVE
INDEX 01 00:00:00
TRACK 06 AUDIO
TITLE "When You're Smiling"
PERFORMER "Carol Welsman"
INDEX 00 05:44:16
FILE "06. When You're Smiling.wav" WAVE
INDEX 01 00:00:00
TRACK 07 AUDIO
TITLE "Johnny Guitar"
PERFORMER "Carol Welsman"
INDEX 00 04:48:17
FILE "07. Johnny Guitar.wav" WAVE
INDEX 01 00:00:00
TRACK 08 AUDIO
TITLE "Fever"
PERFORMER "Carol Welsman"
INDEX 00 04:06:55
FILE "08. Fever.wav" WAVE
INDEX 01 00:00:00
TRACK 09 AUDIO
TITLE "Goody Goody"
PERFORMER "Carol Welsman"
INDEX 00 03:59:61
FILE "09. Goody Goody.wav" WAVE
INDEX 01 00:00:00
TRACK 10 AUDIO
TITLE "The Very Thought Of You"
PERFORMER "Carol Welsman"
INDEX 00 02:51:60
FILE "10. The Very Thought Of You.wav" WAVE
INDEX 01 00:00:00
TRACK 11 AUDIO
TITLE "On A Slow Boat To China"
PERFORMER "Carol Welsman"
INDEX 00 03:07:73
FILE "11. On A Slow Boat To China.wav" WAVE
INDEX 01 00:00:00
TRACK 12 AUDIO
TITLE "Memories Of You"
PERFORMER "Carol Welsman"
INDEX 00 02:37:56
FILE "12. Memories Of You.wav" WAVE
INDEX 01 00:00:00
TRACK 13 AUDIO
TITLE "Sing Sing Sing"
PERFORMER "Carol Welsman"
INDEX 00 04:45:45
FILE "13. Sing Sing Sing.wav" WAVE
INDEX 01 00:00:00
TRACK 14 AUDIO
TITLE "Where Or When"
PERFORMER "Carol Welsman"
INDEX 00 03:01:10
FILE "14. Where Or When.wav" WAVE
INDEX 01 00:00:00
TRACK 15 AUDIO
TITLE "More Than You Know"
PERFORMER "Carol Welsman"
INDEX 00 03:49:05
FILE "15. More Than You Know.wav" WAVE
INDEX 01 00:00:00
TRACK 16 AUDIO
TITLE "The Glory Of Love"
PERFORMER "Carol Welsman"
INDEX 00 04:15:00
FILE "16. The Glory Of Love.wav" WAVE
INDEX 01 00:00:00
Any questions - support@pro-jazz.com. Есть вопросы - support@pro-jazz.com
02:59
283
Нет комментариев. Ваш будет первым!