Поиск

(Vocal Jazz) Carol Welsman - Коллекция - 1996-2007 (6 альбомов), FLAC (tracks, image+.cue), lossless

(Vocal Jazz) Carol Welsman - Коллекция - 1996-2007 (6 альбомов), FLAC (tracks, image+.cue), lossless
Треклист:
Carol Welsman
Коллекция - 1996-2007 (6 альбомов)Жанр: Vocal Jazz
Аудиокодек: FLAC
Битрейт аудио: lossless
Продолжительность: 5:40:59
Carol Welsman (Кэрол Уэлсман) (29.09.1960) - канадская джазовая певица, пианистка. Хотя Кэрол Уэлсман проживает в окрестностях Лос-Анджелеса, она более известна в своей родной Канаде. Чаще исполняя smooth джаз, она также записывает классические джазовые стандарты и композиции в стиле bossa nova, а также может свинговать в манере straight-ahead джаза. Ее отец был большим любителем джаза, и обладая большой колллекцией записей, пристрастил дочь к джазу. Но она не только слушала записи, а начиная с 12-летнего возраста еще и часто ходила с ним на концерты, с возрастающим интересом слушая пение Пегги Ли, Френка Синатры и Мела Торме. Уэлсман пела в стиле босса-новы и фолка и аккомпанировала себе на гитаре, начиная с 10-летнего возраста. Она начала исполнять джаз к 20-ти годам. Уэлсман посещала Музыкальный Колледж Беркли в 1980-1981 гг. и обучалась пению во Франции у Кристиан Легран (сестры Мишеля Леграна).
Записываться Уэлсман начала в Торонто на лейбле Welcar. Первым ее альбомом стал в 1996 г. «Lucky to Be Me». Она выступала с концертами по всей Канаде, а также работала профессором джазового вокала в универистете Торонто. В 2004-2005 гг. она, помимо Канады, ездила с концертами по Японии, Италии и Бразилии, а также немного выступала в Лос-Анджелесе как певица/пианист. Тем не менее, она недостаточно широко известна в США, несмотря на высокую популярность в Канаде. Три раза номинировалась на канадский вариант «Грэмми» — премию Juno и заслужила у себя на родине титул лучшей певицы 2002 года.
 
Carol Welsman
Carol Welsman (born September 29, 1960 in Toronto) is a Canadian jazz vocalist and pianist. She is the granddaughter of conductor/composer Frank Welsman and the sister of composer John Welsman. She has been nominated 5 times for the Juno Award.
Artistic career
Carol Welsman attended Boston's Berklee College of Music and majored in piano performance. She studied voice in Europe.
In 1990 she returned to Toronto and joined the Jazz Performance Faculty at the University of Toronto and in addition to giving private lessons developed a jazz vocal improvisation ensemble. Since then she has been teaching classes, clinics and workshops at colleges and universities both in Canada and the US.
In 1995 she issued her first CD "Lucky to be me", with jazz standards and her own song "This Lullaby", which she presented on September 11, 2004 on the Larry King show commemorating 9/11. The song was also adopted by Celine Dion on her 2004 "Miracle" CD as "Baby, Close Your Eyes". Welsman also wrote lyrics for several singers e. g. for Ray Charles, and Nicole Scherzinger of The Pussycat Dolls. Together with Herbie Hancock she co-hosted the 2000 Billboard Jazz Awards.
In 2005 she was the subject of a documentary called "Language of Love", produced by Stormy NIghts productions. Shot in Brazil, Italy and North America, Carol performs with Herbie Hancock, Brazilian superstar Djavan, and Romano Musumarra.
Her 2009 CD, “I Like Men” - Reflections of Miss Peggy Lee, was voted Top 5 Album Pick of the Year 2009 in USA Today. On April 30, 2010 she appeared on Marian McPartland's Piano Jazz and was interviewed by guest host Jon Weber.
Carol Welsman's native language is English and so are most of her songs, but she also sings and teaches in French and a few of her songs are in Portuguese.
 
1996 - Lucky to Be Me
Carol Welsman - Lucky to Be Me
Страна-производитель диска: Канада
Год издания диска: 1996
Издатель (лейбл): Welcar Music
Номер по каталогу: WMCD 362
Тип рипа: image+.cue
Продолжительность: 60:38
Источник (релизер): seogcg (hqshare)
Наличие сканов в содержимом раздачи: да
Треклист:
01. Lucky to Be Me (Comden-Green-Bernstein) - 3:53
02. You Taught My Heart to Sing (Tyner-Cahn) - 6:09
03. Garota d'Ipanema/Girl from Ipanema (Jobim-De Moraes) - 7:03
04. Don't Get Around Much Anymore (Ellington-Russell) - 8:08
05. May I Come In (Fisher-Segal) - 5:36
06. La Valse des Lilas/Once Upon a Summertime (Legrand-Bacri-Mercer-Ruault) - 5:49
07. Heartbreaker (Musumarra-Welsman-Dixon) - 6:20
08. I Got Rhythm (Gershwin-Gershwin) - 7:50
09. Things Ain't What They Used to Be (Filington-Persons) - 6:47
10. This Lullaby (Musumarra-Welsman) - 3:03
Состав:
Carol Welsman - piano, vocals
Paul Novotny - bass
Mark Kelso - drums
Phil Dwyer - tenor saxophone, alto saxophone, soprano saxophone
Guido Basso - flugelhorn, harmonica
Recorded at Inception Sound, Toronto on December 11-13, 1994.
 
Лог создания рипа
EAC extraction logfile from 24. November 2007, 11:17 for CD
Carol Welsman / Lucky to be me
Used drive : HL-DT-STRW/DVD GCC-4520B Adapter: 0 ID: 1
Read mode : Secure with NO C2, accurate stream, disable cache
Read offset correction : 6
Overread into Lead-In and Lead-Out : No
Used output format : Internal WAV Routines
44.100 Hz; 16 Bit; Stereo
Other options :
Fill up missing offset samples with silence : Yes
Delete leading and trailing silent blocks : No
Installed external ASPI interface
Range status and errors
Selected range
Filename D:\INCOMING\_RELEASES\Carol Welsman - Lucky to be me.wav
Peak level 99.6 %
Range quality 100.0 %
CRC 0CD46A10
Copy OK
No errors occured
End of status report
 
Содержание индексной карты (.CUE)
REM GENRE Jazz
REM DATE 1996
REM DISCID 840E350A
REM COMMENT "ExactAudioCopy v0.95b4"
CATALOG 0101000139000
PERFORMER "Carol Welsman"
TITLE "Lucky to Be Me"
FILE "Carol Welsman - Lucky to Be Me.wav" WAVE
TRACK 01 AUDIO
TITLE "Lucky to Be Me"
PERFORMER "Carol Welsman"
INDEX 00 00:00:00
INDEX 01 00:01:00
TRACK 02 AUDIO
TITLE "You Taught My Heart to Sing"
PERFORMER "Carol Welsman"
INDEX 00 03:53:45
INDEX 01 03:54:30
TRACK 03 AUDIO
TITLE "Garota d'Ipanema/Girl from Ipanema"
PERFORMER "Carol Welsman"
INDEX 00 09:59:24
INDEX 01 10:03:05
TRACK 04 AUDIO
TITLE "Don't Get Around Much Anymore"
PERFORMER "Carol Welsman"
INDEX 00 17:01:33
INDEX 01 17:05:45
TRACK 05 AUDIO
TITLE "May I Come In"
PERFORMER "Carol Welsman"
INDEX 00 25:08:31
INDEX 01 25:13:15
TRACK 06 AUDIO
TITLE "La Valse des Lilas/Once Upon a Summertime"
PERFORMER "Carol Welsman"
INDEX 00 30:44:73
INDEX 01 30:48:60
TRACK 07 AUDIO
TITLE "Heartbreaker"
PERFORMER "Carol Welsman"
INDEX 01 36:37:72
TRACK 08 AUDIO
TITLE "I Got Rhythm"
PERFORMER "Carol Welsman"
INDEX 00 42:54:28
INDEX 01 42:58:15
TRACK 09 AUDIO
TITLE "Things Ain't What They Used to Be"
PERFORMER "Carol Welsman"
INDEX 00 50:45:50
INDEX 01 50:47:70
TRACK 10 AUDIO
TITLE "This Lullaby"
PERFORMER "Carol Welsman"
INDEX 00 57:32:03
INDEX 01 57:35:05
 
1998 - Swing Ladies, Swing!: A Tribute to Singers of the Swing Era
Carol Welsman - Swing Ladies, Swing!: A Tribute to Singers of the Swing Era
Страна-производитель диска: Канада
Год издания диска: 1998
Издатель (лейбл): Welcar Music
Номер по каталогу: WMCD 365
Тип рипа: image+.cue
Продолжительность: 52:54
Источник (релизер): seogcg (hqshare)
Наличие сканов в содержимом раздачи: да
Треклист:
01. Honeysuckle Rose (Waller-Razaf) - 3:37
02. What Are You Doing the Rest of Your Life? (Legrand-Bergman) - 4:50
03. Fever (Davenport-Cooley) - 3:29
04. Never Let Me Go (Livingstone-Evans) - 5:55
05. More Than You Know (Youmans-Eliscu-Rose) - 4:12
06. Cheek to Cheek (Berlin) - 4:12
07. Black Coffee (Webber-Burke) - 5:08
08. Taking a Chance on Love (Duke-Fetter-Latouche) - 3:55
09. Over the Rainbow (Arlen-Harburg) - 5:02
10. If I Were a Bell (Loesser) - 3:29
11. God Bless the Child (Herzog Jr.-Holiday) - 5:21
12. Do It Again (Gershwin-DeSylva) - 3:44
Состав:
Carol Welsman - piano, vocals
Mark Eisenman, James Dale - piano
George Koller, Andrew Downing - bass
Mark Kelso, Davide DiRenzo, Bob McLaren - drums
Phil Dwyer - saxophone
Recorded at McClear Pathe Recording Studios on January 26-27, and at Manta Eastern Sound on June 9-12, 1998.
 
Лог создания рипа
EAC extraction logfile from 24. November 2007, 12:28 for CD
Carol Welsman with Symphony Orchestra / Swing Ladies, Swing - A Tribute
Used drive : HL-DT-STRW/DVD GCC-4520B Adapter: 0 ID: 1
Read mode : Secure with NO C2, accurate stream, disable cache
Read offset correction : 6
Overread into Lead-In and Lead-Out : No
Used output format : Internal WAV Routines
44.100 Hz; 16 Bit; Stereo
Other options :
Fill up missing offset samples with silence : Yes
Delete leading and trailing silent blocks : No
Installed external ASPI interface
Range status and errors
Selected range
Filename D:\INCOMING\_RELEASES\Carol Welsman with Symphony Orchestra - Swing Ladies, Swing - A Tribute.wav
Peak level 96.1 %
Range quality 100.0 %
CRC 21813764
Copy OK
No errors occured
End of status report
 
Содержание индексной карты (.CUE)
REM GENRE Jazz
REM DATE 1998
REM DISCID 9C0C660C
REM COMMENT "ExactAudioCopy v0.95b4"
PERFORMER "Carol Welsman"
TITLE "Swing Ladies, Swing!: A Tribute to Singers of the Swing Era"
FILE "Carol Welsman - Swing Ladies, Swing!- A Tribute to Singers of the Swing Era.wav" WAVE
TRACK 01 AUDIO
TITLE "Honeysuckle Rose"
PERFORMER "Carol Welsman"
INDEX 01 00:00:00
TRACK 02 AUDIO
TITLE "What Are You Doing the Rest of Your Life?"
PERFORMER "Carol Welsman"
INDEX 00 03:33:70
INDEX 01 03:37:22
TRACK 03 AUDIO
TITLE "Fever"
PERFORMER "Carol Welsman"
INDEX 00 08:24:55
INDEX 01 08:27:22
TRACK 04 AUDIO
TITLE "Never Let Me Go"
PERFORMER "Carol Welsman"
INDEX 00 11:53:27
INDEX 01 11:55:67
TRACK 05 AUDIO
TITLE "More Than You Know"
PERFORMER "Carol Welsman"
INDEX 00 17:50:00
INDEX 01 17:51:00
TRACK 06 AUDIO
TITLE "Cheek to Cheek"
PERFORMER "Carol Welsman"
INDEX 00 22:00:40
INDEX 01 22:02:55
TRACK 07 AUDIO
TITLE "Black Coffee"
PERFORMER "Carol Welsman"
INDEX 00 26:11:50
INDEX 01 26:14:42
TRACK 08 AUDIO
TITLE "Taking a Chance on Love"
PERFORMER "Carol Welsman"
INDEX 00 31:21:00
INDEX 01 31:22:65
TRACK 09 AUDIO
TITLE "Over the Rainbow"
PERFORMER "Carol Welsman"
INDEX 00 35:13:67
INDEX 01 35:17:40
TRACK 10 AUDIO
TITLE "If I Were a Bell"
PERFORMER "Carol Welsman"
INDEX 00 40:18:05
INDEX 01 40:19:62
TRACK 11 AUDIO
TITLE "God Bless the Child"
PERFORMER "Carol Welsman"
INDEX 00 43:48:02
INDEX 01 43:49:12
TRACK 12 AUDIO
TITLE "Do It Again"
PERFORMER "Carol Welsman"
INDEX 00 49:06:07
INDEX 01 49:10:05
 
2001 - Hold Me
Carol Welsman - Hold Me
Страна-производитель диска: Канада
Год издания диска: 2001
Издатель (лейбл): BMG Music Canada
Тип рипа: tracks+.cue
Продолжительность: 61:44
Источник (релизер): pepperpuppy (what)
Наличие сканов в содержимом раздачи: нет
Треклист:
01. Night and Day (Porter) - 5:20
02. Fragile (Sting) - 4:45
03. Love Junkyard (Sting) - 4:11
04. Hold Me (Welsman-Acosta) - 4:16
05. Brazasia (Del Rosario-Mann-Neves) - 5:12
06. Talking Is Good (Holland-Blue) - 5:24
07. Bird of Paradise (Djavan-Franks) - 5:17
08. I Believe (Foster-Russell) - 5:13
09. Little Caesar (Cox-Drummie) - 5:43
10. Why (Lennox) - 5:58
11. Les Moulins de Mon Coeur (Bacri-Bergman-Legrand) - 5:01
12. And So It Goes (Joel) - 5:24
Состав:
Carol Welsman - piano, vocals
Jimmy Johnson - bass
Machito Sanchez - percussion
Paul Jackson Jr. - guitar
Freddie Washington, John Pena - bass
Vinnie Colaiuta - drums
 
Лог создания рипа
Exact Audio Copy V0.99 prebeta 5 from 4. May 2009
EAC extraction logfile from 1. November 2009, 20:26
Carol Welsman / Hold Me
Used drive : LITE-ON DVDRW LH-20A1P Adapter: 0 ID: 0
Read mode : Secure
Utilize accurate stream : Yes
Defeat audio cache : Yes
Make use of C2 pointers : No
Read offset correction : 6
Overread into Lead-In and Lead-Out : No
Fill up missing offset samples with silence : Yes
Delete leading and trailing silent blocks : No
Null samples used in CRC calculations : Yes
Used interface : Native Win32 interface for Win NT & 2000
Gap handling : Appended to previous track
Used output format : User Defined Encoder
Selected bitrate : 768 kBit/s
Quality : High
Add ID3 tag : No
Command line compressor : P:\Program Files\Exact Audio Copy\FLAC\FLAC.EXE
Additional command line options : -V -8 -T "artist=%a" -T "title=%t" -T "album=%g" -T "date=%y" -T "tracknumber=%n" -T "genre=%m" %s
TOC of the extracted CD
Track | Start | Length | Start sector | End sector
---------------------------------------------------------
1 | 0:00.00 | 5:19.65 | 0 | 23989
2 | 5:19.65 | 4:44.67 | 23990 | 45356
3 | 10:04.57 | 4:10.48 | 45357 | 64154
4 | 14:15.30 | 4:15.67 | 64155 | 83346
5 | 18:31.22 | 5:11.58 | 83347 | 106729
6 | 23:43.05 | 5:23.52 | 106730 | 131006
7 | 29:06.57 | 5:17.23 | 131007 | 154804
8 | 34:24.05 | 5:12.42 | 154805 | 178246
9 | 39:36.47 | 5:43.33 | 178247 | 204004
10 | 45:20.05 | 5:58.32 | 204005 | 230886
11 | 51:18.37 | 5:01.15 | 230887 | 253476
12 | 56:19.52 | 5:24.20 | 253477 | 277796
Track 1
Filename Q:\EAC\Carol Welsman - 2001 - Hold Me\01 - Night And Day.wav
Pre-gap length 0:00:02.00
Peak level 99.8 %
Track quality 100.0 %
Test CRC 10CB1520
Copy CRC 10CB1520
Cannot be verified as accurate (confidence 1) [CE2CB17E], AccurateRip returned [A271BC1A]
Copy OK
Track 2
Filename Q:\EAC\Carol Welsman - 2001 - Hold Me\02 - Fragile.wav
Peak level 99.8 %
Track quality 99.9 %
Test CRC 0456F1BE
Copy CRC 0456F1BE
Cannot be verified as accurate (confidence 1) [6D1401D3], AccurateRip returned [ED8FD68A]
Copy OK
Track 3
Filename Q:\EAC\Carol Welsman - 2001 - Hold Me\03 - Love Junkyard.wav
Peak level 99.8 %
Track quality 100.0 %
Test CRC 392CBBEE
Copy CRC 392CBBEE
Cannot be verified as accurate (confidence 1) [89AFEBE8], AccurateRip returned [A6355E63]
Copy OK
Track 4
Filename Q:\EAC\Carol Welsman - 2001 - Hold Me\04 - Hold Me.wav
Peak level 99.8 %
Track quality 100.0 %
Test CRC B04B39F5
Copy CRC B04B39F5
Cannot be verified as accurate (confidence 1) [C6569BA7], AccurateRip returned [92DB6F20]
Copy OK
Track 5
Filename Q:\EAC\Carol Welsman - 2001 - Hold Me\05 - Brazasia.wav
Peak level 99.8 %
Track quality 100.0 %
Test CRC 13312D11
Copy CRC 13312D11
Cannot be verified as accurate (confidence 1) [48C5B711], AccurateRip returned [997262CC]
Copy OK
Track 6
Filename Q:\EAC\Carol Welsman - 2001 - Hold Me\06 - Talking Is Good.wav
Peak level 99.8 %
Track quality 100.0 %
Test CRC 7DE0A298
Copy CRC 7DE0A298
Cannot be verified as accurate (confidence 1) [48578E92], AccurateRip returned [3B80ABCB]
Copy OK
Track 7
Filename Q:\EAC\Carol Welsman - 2001 - Hold Me\07 - Bird Of Paradise.wav
Peak level 99.8 %
Track quality 100.0 %
Test CRC 0734C3EB
Copy CRC 0734C3EB
Cannot be verified as accurate (confidence 1) [1582C437], AccurateRip returned [0BC5AB30]
Copy OK
Track 8
Filename Q:\EAC\Carol Welsman - 2001 - Hold Me\08 - I Believe.wav
Peak level 99.8 %
Track quality 100.0 %
Test CRC E2A38C20
Copy CRC E2A38C20
Cannot be verified as accurate (confidence 1) [2AB5BEE9], AccurateRip returned [D4F3C160]
Copy OK
Track 9
Filename Q:\EAC\Carol Welsman - 2001 - Hold Me\09 - Little Caesar.wav
Peak level 99.8 %
Track quality 100.0 %
Test CRC 0A7DDEDE
Copy CRC 0A7DDEDE
Cannot be verified as accurate (confidence 1) [DC10AC86], AccurateRip returned [A9552946]
Copy OK
Track 10
Filename Q:\EAC\Carol Welsman - 2001 - Hold Me\10 - Why.wav
Peak level 99.8 %
Track quality 100.0 %
Test CRC 277D2C0C
Copy CRC 277D2C0C
Cannot be verified as accurate (confidence 1) [683CE051], AccurateRip returned [404A69CC]
Copy OK
Track 11
Filename Q:\EAC\Carol Welsman - 2001 - Hold Me\11 - Les Moulins De Mon Coeur.wav
Peak level 99.8 %
Track quality 100.0 %
Test CRC 158A85E1
Copy CRC 158A85E1
Cannot be verified as accurate (confidence 1) [D0D4AF11], AccurateRip returned [EEAD7DE0]
Copy OK
Track 12
Filename Q:\EAC\Carol Welsman - 2001 - Hold Me\12 - And So It Goes.wav
Peak level 96.7 %
Track quality 100.0 %
Test CRC 19DFDACE
Copy CRC 19DFDACE
Cannot be verified as accurate (confidence 1) [D703E9D5], AccurateRip returned [2C92622B]
Copy OK
No tracks could be verified as accurate
You may have a different pressing from the one(s) in the database
No errors occurred
End of status report
 
Содержание индексной карты (.CUE)
REM GENRE Jazz
REM DATE 2001
REM DISCID 970E770C
REM COMMENT "ExactAudioCopy v0.99pb5"
PERFORMER "Carol Welsman"
TITLE "Hold Me"
FILE "01 - Night and Day.wav" WAVE
TRACK 01 AUDIO
TITLE "Night and Day"
PERFORMER "Carol Welsman"
INDEX 01 00:00:00
FILE "02 - Fragile.wav" WAVE
TRACK 02 AUDIO
TITLE "Fragile"
PERFORMER "Carol Welsman"
INDEX 01 00:00:00
FILE "03 - Love Junkyard.wav" WAVE
TRACK 03 AUDIO
TITLE "Love Junkyard"
PERFORMER "Carol Welsman"
INDEX 01 00:00:00
FILE "04 - Hold Me.wav" WAVE
TRACK 04 AUDIO
TITLE "Hold Me"
PERFORMER "Carol Welsman"
INDEX 01 00:00:00
FILE "05 - Brazasia.wav" WAVE
TRACK 05 AUDIO
TITLE "Brazasia"
PERFORMER "Carol Welsman"
INDEX 01 00:00:00
FILE "06 - Talking Is Good.wav" WAVE
TRACK 06 AUDIO
TITLE "Talking Is Good"
PERFORMER "Carol Welsman"
INDEX 01 00:00:00
FILE "07 - Bird of Paradise.wav" WAVE
TRACK 07 AUDIO
TITLE "Bird of Paradise"
PERFORMER "Carol Welsman"
INDEX 01 00:00:00
FILE "08 - I Believe.wav" WAVE
TRACK 08 AUDIO
TITLE "I Believe"
PERFORMER "Carol Welsman"
INDEX 01 00:00:00
FILE "09 - Little Caesar.wav" WAVE
TRACK 09 AUDIO
TITLE "Little Caesar"
PERFORMER "Carol Welsman"
INDEX 01 00:00:00
FILE "10 - Why.wav" WAVE
TRACK 10 AUDIO
TITLE "Why"
PERFORMER "Carol Welsman"
INDEX 01 00:00:00
FILE "11 - Les Moulins de Mon Coeur.wav" WAVE
TRACK 11 AUDIO
TITLE "Les Moulins de Mon Coeur"
PERFORMER "Carol Welsman"
INDEX 01 00:00:00
FILE "12 - And So It Goes.wav" WAVE
TRACK 12 AUDIO
TITLE "And So It Goes"
PERFORMER "Carol Welsman"
INDEX 01 00:00:00
 
2002 - The Language of Love
Carol Welsman - The Language of Love
Страна-производитель диска: США
Год издания диска: 2002
Издатель (лейбл): Savoy Jazz
Номер по каталогу: SVY 17196
Тип рипа: image+.cue
Продолжительность: 53:07
Источник (релизер): seogcg (hqshare)
Наличие сканов в содержимом раздачи: да
Треклист:
01. Taking a Chance on Love (Duke-Fetter-Latouche) - 3:12
02. You Take Me Away (Welsman-Acosta) - 3:43
03. On a Slow Boat to China (Loesser) - 2:41
04. A Nightingale Sang in Berkeley Square (Maschwitz-Sherwin) - 5:46
05. Can't Help Falling in Love (Creatore-Peretti-Weiss) - 3:32
06. Just One of Those Things (Porter) - 3:33
07. Coracao Leviano (De Faria) - 4:14
08. Every Breath You Take (Sting) - 4:39
09. A Fool I Know (Castro Neves-Lees) - 4:03
10. There's No Such Thing as Love (Fraser-Newley) - 4:48
11. The Man I Love (Gershwin-Gershwin) - 4:14
12. Chanson de Maxence (Brown-Derny-Legrand-More) - 4:28
13. Senza Fine (Paoli) - 4:15
Состав:
Carol Welsman - vocals, piano, Yamaha clavinova, background vocals
Oscar Castro-Neves - acoustic guitar
Alex Acuna - drums, percussion
Dave Carpenter - bass
Charlie Bisharat - violins, violas
Gary Meek - flutes
Kate Markowitz - background vocals
Arnold McCuller - vocals (#5)
Carlos del Rosario - percussion
Ramon Stagnaro - electric guitars
Recorded at Entourage Studios, North Hollywood, CA and Visual Rhythm Sounds, Alhambra, CA.
 
Лог создания рипа
EAC extraction logfile from 24. November 2007, 13:12 for CD
Carol Welsman / The Language of Love
Used drive : HL-DT-STRW/DVD GCC-4520B Adapter: 0 ID: 1
Read mode : Secure with NO C2, accurate stream, disable cache
Read offset correction : 6
Overread into Lead-In and Lead-Out : No
Used output format : Internal WAV Routines
44.100 Hz; 16 Bit; Stereo
Other options :
Fill up missing offset samples with silence : Yes
Delete leading and trailing silent blocks : No
Installed external ASPI interface
Range status and errors
Selected range
Filename D:\INCOMING\_RELEASES\Carol Welsman - The Language of Love.wav
Peak level 89.7 %
Range quality 100.0 %
CRC 951D87BC
Copy OK
No errors occured
End of status report
 
Содержание индексной карты (.CUE)
REM GENRE Jazz
REM DATE 2002
REM DISCID A50C720D
REM COMMENT "ExactAudioCopy v0.95b4"
PERFORMER "Carol Welsman"
TITLE "The Language of Love"
FILE "Carol Welsman - The Language of Love.wav" WAVE
TRACK 01 AUDIO
TITLE "Taking a Chance on Love"
PERFORMER "Carol Welsman"
INDEX 01 00:00:00
TRACK 02 AUDIO
TITLE "You Take Me Away"
PERFORMER "Carol Welsman"
INDEX 00 03:10:41
INDEX 01 03:11:71
TRACK 03 AUDIO
TITLE "On a Slow Boat to China"
PERFORMER "Carol Welsman"
INDEX 00 06:54:44
INDEX 01 06:55:04
TRACK 04 AUDIO
TITLE "A Nightingale Sang in Berkeley Square"
PERFORMER "Carol Welsman"
INDEX 00 09:34:52
INDEX 01 09:35:52
TRACK 05 AUDIO
TITLE "Can't Help Falling in Love"
PERFORMER "Carol Welsman"
INDEX 00 15:19:22
INDEX 01 15:21:22
TRACK 06 AUDIO
TITLE "Just One of Those Things"
PERFORMER "Carol Welsman"
INDEX 00 18:52:46
INDEX 01 18:53:11
TRACK 07 AUDIO
TITLE "Coracao Leviano"
PERFORMER "Carol Welsman"
INDEX 00 22:24:64
INDEX 01 22:26:14
TRACK 08 AUDIO
TITLE "Every Breath You Take"
PERFORMER "Carol Welsman"
INDEX 00 26:37:71
INDEX 01 26:39:71
TRACK 09 AUDIO
TITLE "A Fool I Know"
PERFORMER "Carol Welsman"
INDEX 00 31:18:43
INDEX 01 31:18:73
TRACK 10 AUDIO
TITLE "There's No Such Thing as Love"
PERFORMER "Carol Welsman"
INDEX 00 35:19:70
INDEX 01 35:21:70
TRACK 11 AUDIO
TITLE "The Man I Love"
PERFORMER "Carol Welsman"
INDEX 01 40:10:14
TRACK 12 AUDIO
TITLE "Chanson de Maxence"
PERFORMER "Carol Welsman"
INDEX 00 44:22:65
INDEX 01 44:24:30
TRACK 13 AUDIO
TITLE "Senza Fine"
PERFORMER "Carol Welsman"
INDEX 00 48:49:69
INDEX 01 48:51:69
 
Review by Paula Edelstein
Carol Welsman sings an easy, airy, romantic set with hints of passion and sensuality immersed in a savory palate of impressive nuance on The Language of Love. With three Juno Award nominations as well as the 2002 Vocalist of the Year award, the internationally acclaimed vocalist and pianist is appreciated more than ever. Welsman immaculately captures the unique expressions of love with elongated phrasings, lite scats, and endearing vocal techniques delectably mirrored in her bluesy rendition of Gershwin's "The Man I Love" and through the gentle swing of the French version of "Chanson de Maxence." Welsman takes the topic to new heights and eradicates the pain of falling in love with an upbeat bossa nova version of Cole Porter's "Just One of Those Things." She demystifies Gino Paoli's "Senza Fine" and beautifully brings the Italian composer's smooth essence to the forefront in his native language. This is a beautifully expressed piece and holds the listener captive until the final note is played. With The Language of Love, Carol Welsman surpasses her other endeavors and should garner more acclaim because of the delightful interpretations she offers.
 
2006 - What'cha Got Cookin'?
Carol Welsman - What'cha Got Cookin'?
Страна-производитель диска: Япония
Год издания диска: 2006
Издатель (лейбл): Ludlow Music
Номер по каталогу: COCB-53505
Тип рипа: image+.cue
Продолжительность: 61:43
Источник (релизер): Marshalz (hqshare)
Наличие сканов в содержимом раздачи: да
Треклист:
01. Hey Good Lookin' (Williams) - 3:22
02. Stand by Your Man (Herrill-Wynette) - 3:52
03. Everybody's Talkin' (Neil) - 3:57
04. It's My Party (Gore) - 5:22
05. By the Time I Get to Phoenix (Webb) - 3:37
06. Your Cheatin' Heart (Williams) - 4:47
07. Just a Little Lovin' (Arnold-Clements) - 3:33
08. Always on My Mind (Thompson-James-Christopher) - 4:54
09. Walkin' After Midnight (Hecht) - 6:09
10. I Feel Lucky (Carpenter) - 3:43
11. Baby Come Easy (Musumarra-Welsman) - 3:37
12. Daddy's Little Girl (Bonoff) - 4:26
13. I Can't Stop Lovin' You (Gibson) - 5:17
14. I'm Walkin' the Floor over You (Tubb) - 4:59
Состав:
Carol Welsman - piano, Fender Rhodes, vocals
Kevin Axt - acoustic bass, electric bass
Ray Brinker - drums
Grant Geissman - guitars
Randy Waldman - keyboards
Brad Dutz - percussion
Lenny Castro - overdubbed percussion
Recorded live at Centerstaging, Burbank, CA on June 28, 2005.
 
Лог создания рипа
Exact Audio Copy V0.99 prebeta 4 from 23. January 2008
EAC extraction logfile from 16. January 2009, 23:42
Carol Welsman / What'cha Got Cookin'? (Japan)
Used drive : HL-DT-STDVDRAM GSA-H62N Adapter: 2 ID: 0
Read mode : Secure
Utilize accurate stream : Yes
Defeat audio cache : Yes
Make use of C2 pointers : No
Read offset correction : 667
Overread into Lead-In and Lead-Out : No
Fill up missing offset samples with silence : Yes
Delete leading and trailing silent blocks : No
Null samples used in CRC calculations : Yes
Used interface : Installed external ASPI interface
Used output format : Internal WAV Routines
Sample format : 44.100 Hz; 16 Bit; Stereo
TOC of the extracted CD
Track | Start | Length | Start sector | End sector
---------------------------------------------------------
1 | 0:00.00 | 3:22.64 | 0 | 15213
2 | 3:22.64 | 3:52.19 | 15214 | 32632
3 | 7:15.08 | 3:57.54 | 32633 | 50461
4 | 11:12.62 | 5:22.52 | 50462 | 74663
5 | 16:35.39 | 3:37.07 | 74664 | 90945
6 | 20:12.46 | 4:47.69 | 90946 | 112539
7 | 25:00.40 | 3:33.59 | 112540 | 128573
8 | 28:34.24 | 4:54.02 | 128574 | 150625
9 | 33:28.26 | 6:09.54 | 150626 | 178354
10 | 39:38.05 | 3:43.70 | 178355 | 195149
11 | 43:22.00 | 3:37.25 | 195150 | 211449
12 | 46:59.25 | 4:26.22 | 211450 | 231421
13 | 51:25.47 | 5:17.64 | 231422 | 255260
14 | 56:43.36 | 4:59.55 | 255261 | 277740
Range status and errors
Selected range
Filename D:\Temp\What'cha Got Cookin' (Japan).wav
Peak level 100.0 %
Range quality 99.9 %
Copy CRC A681E39F
Copy OK
No errors occurred
AccurateRip summary
Track 1 not present in database
Track 2 not present in database
Track 3 not present in database
Track 4 not present in database
Track 5 not present in database
Track 6 not present in database
Track 7 not present in database
Track 8 not present in database
Track 9 not present in database
Track 10 not present in database
Track 11 not present in database
Track 12 not present in database
Track 13 not present in database
Track 14 not present in database
None of the tracks are present in the AccurateRip database
End of status report
 
Содержание индексной карты (.CUE)
REM GENRE Jazz
REM DATE 2006
REM DISCID A60E770E
REM COMMENT "ExactAudioCopy v0.99pb4"
CATALOG 4988001980469
PERFORMER "Carol Welsman"
TITLE "What'cha Got Cookin'?"
FILE "Carol Welsman - What'cha Got Cookin'.wav" WAVE
TRACK 01 AUDIO
TITLE "Hey Good Lookin'"
PERFORMER "Carol Welsman"
ISRC US2CM0600001
INDEX 01 00:00:00
TRACK 02 AUDIO
TITLE "Stand by Your Man"
PERFORMER "Carol Welsman"
ISRC US2CM0600002
INDEX 00 03:22:38
INDEX 01 03:22:64
TRACK 03 AUDIO
TITLE "Everybody's Talkin'"
PERFORMER "Carol Welsman"
ISRC US2CM0600003
INDEX 00 07:14:48
INDEX 01 07:15:08
TRACK 04 AUDIO
TITLE "It's My Party"
PERFORMER "Carol Welsman"
ISRC US2CM0600004
INDEX 00 11:12:00
INDEX 01 11:12:62
TRACK 05 AUDIO
TITLE "By the Time I Get to Phoenix"
PERFORMER "Carol Welsman"
ISRC US2CM0600005
INDEX 00 16:33:65
INDEX 01 16:35:39
TRACK 06 AUDIO
TITLE "Your Cheatin' Heart"
PERFORMER "Carol Welsman"
ISRC US2CM0600006
INDEX 00 20:10:29
INDEX 01 20:12:46
TRACK 07 AUDIO
TITLE "Just a Little Lovin'"
PERFORMER "Carol Welsman"
ISRC US2CM0600007
INDEX 00 24:57:74
INDEX 01 25:00:40
TRACK 08 AUDIO
TITLE "Always on My Mind"
PERFORMER "Carol Welsman"
ISRC US2CM0600008
INDEX 00 28:33:02
INDEX 01 28:34:24
TRACK 09 AUDIO
TITLE "Walkin' After Midnight"
PERFORMER "Carol Welsman"
ISRC US2CM0600009
INDEX 00 33:26:43
INDEX 01 33:28:26
TRACK 10 AUDIO
TITLE "I Feel Lucky"
PERFORMER "Carol Welsman"
ISRC US2CM0600010
INDEX 00 39:36:38
INDEX 01 39:38:05
TRACK 11 AUDIO
TITLE "Baby Come Easy"
PERFORMER "Carol Welsman"
ISRC US2CM0600011
INDEX 00 43:20:17
INDEX 01 43:22:00
TRACK 12 AUDIO
TITLE "Daddy's Little Girl"
PERFORMER "Carol Welsman"
ISRC US2CM0600012
INDEX 00 46:57:02
INDEX 01 46:59:25
TRACK 13 AUDIO
TITLE "I Can't Stop Lovin' You"
PERFORMER "Carol Welsman"
ISRC US2CM0600013
INDEX 00 51:23:67
INDEX 01 51:25:47
TRACK 14 AUDIO
TITLE "I'm Walkin' the Floor over You"
PERFORMER "Carol Welsman"
ISRC US2CM0600014
INDEX 00 56:39:45
INDEX 01 56:43:36
 
2007 - Carol Welsman
Carol Welsman - Carol Welsman
Страна-производитель диска: Канада
Год издания диска: 2007
Издатель (лейбл): Justin Time
Номер по каталогу: JUST 220-2
Тип рипа: image+.cue
Продолжительность: 50:53
Источник (релизер): seogcg (hqshare)
Наличие сканов в содержимом раздачи: да
Треклист:
01. Brazasia (Del Rosario-Castro Neves) - 4:30
02. Hold Me (Welsman-Acosta) - 3:55
03. Dans Cette Chambre (Lightfoot) - 3:55
04. What a Fool Believes (McDonald-Loggins) - 4:00
05. Eu Vim da Bahia (Gil) - 2:49
06. Cafe (Welsman) - 3:53
07. Live to Tell (Madonna-Leonard) - 4:58
08. Nosotros (Acosta-Rodriguez) - 4:02
09. Too Close for Comfort (Weiss-Bock-Holofcener) - 5:01
10. With Me (Lubbock) - 2:27
11. Dans Mon Ile (Salvador-Pon) - 3:34
12. Beautiful (Lightfoot) - 3:54
13. Ora (Welsman-Acosta) - 3:55
Состав:
Carol Welsman - piano, keyboards, vocals
Jimmy Haslip - bass
Jimmy Branly - drums, percussion
Pierre Cote - acoustic guitars, electric guitars
John Acosta - guitars, backing vocals (#2)
Vern Dorge - soprano saxophone (#4)
Eric Marienthal (#2,3,12) - alto saxophone, soprano saxophone
Recorded at Phase One Studios, Toronto on January 29 - February 7, 2007.
 
Лог создания рипа
EAC extraction logfile from 20. October 2007, 14:07 for CD
Carol Welsman / Carol Welsman
Used drive : HL-DT-STRW/DVD GCC-4520B Adapter: 0 ID: 1
Read mode : Secure with NO C2, accurate stream, disable cache
Read offset correction : 6
Overread into Lead-In and Lead-Out : No
Used output format : Internal WAV Routines
44.100 Hz; 16 Bit; Stereo
Other options :
Fill up missing offset samples with silence : Yes
Delete leading and trailing silent blocks : No
Installed external ASPI interface
Range status and errors
Selected range
Filename D:\INCOMING\_RELEASES\Carol Welsman - Carol Welsman (2007)\Carol Welsman - Carol Welsman.wav
Peak level 98.8 %
Range quality 100.0 %
CRC DCE2F2CD
Copy OK
No errors occured
End of status report
 
Содержание индексной карты (.CUE)
REM GENRE Jazz
REM DATE 2007
REM DISCID AC0BEC0D
REM COMMENT "ExactAudioCopy v0.95b4"
PERFORMER "Carol Welsman"
TITLE "Carol Welsman"
FILE "Carol Welsman - Carol Welsman.wav" WAVE
TRACK 01 AUDIO
TITLE "Brazasia"
PERFORMER "Carol Welsman"
INDEX 01 00:00:00
TRACK 02 AUDIO
TITLE "Hold Me"
PERFORMER "Carol Welsman"
INDEX 01 04:30:00
TRACK 03 AUDIO
TITLE "Dans Cette Chambre"
PERFORMER "Carol Welsman"
INDEX 01 08:25:00
TRACK 04 AUDIO
TITLE "What a Fool Believes"
PERFORMER "Carol Welsman"
INDEX 01 12:20:00
TRACK 05 AUDIO
TITLE "Eu Vim de Bahia"
PERFORMER "Carol Welsman"
INDEX 01 16:20:00
TRACK 06 AUDIO
TITLE "Cafe"
PERFORMER "Carol Welsman"
INDEX 01 19:09:00
TRACK 07 AUDIO
TITLE "Live to Tell"
PERFORMER "Carol Welsman"
INDEX 01 23:02:00
TRACK 08 AUDIO
TITLE "Nostotros"
PERFORMER "Carol Welsman"
INDEX 01 28:00:00
TRACK 09 AUDIO
TITLE "Too Close for Comfort"
PERFORMER "Carol Welsman"
INDEX 01 32:02:00
TRACK 10 AUDIO
TITLE "With Me"
PERFORMER "Carol Welsman"
INDEX 01 37:03:00
TRACK 11 AUDIO
TITLE "Dans Mon Ile"
PERFORMER "Carol Welsman"
INDEX 01 39:30:00
TRACK 12 AUDIO
TITLE "Beautiful"
PERFORMER "Carol Welsman"
INDEX 00 43:01:00
INDEX 01 43:04:00
TRACK 13 AUDIO
TITLE "Ora"
PERFORMER "Carol Welsman"
INDEX 01 46:58:00
 
Review by Alex Henderson
If this self-titled CD had more of a straight-ahead jazz outlook, it would be easy to describe Carol Welsman as a member of the Cool School; the Canadian singer favors the type of relaxed, subtle phrasing that June Christy, Helen Merrill and Chris Connor were known for in the '50s. But for the most part, this 2007 release (which was produced by Jimmy Haslip of Yellowjackets fame) is not straight-ahead jazz but rather, is best described as jazz-tinged pop/NAC singing along the lines of Basia, Marilyn Scott and Sade. The 50-minute CD does have its improvisatory moments; the Brazilian-flavored "Cafe'" (a Welsman original) demonstrates that Welsman can scat and improvise effectively when she puts her mind to it. But pop dominates the album, and that isn't a problem because Welsman's pop -- although certainly light -- is not lightweight. For all her subtlety and understatement, Welsman gets her emotional points across whether she is putting her spin on the Doobie Brothers' "What a Fool Believes," Madonna's "Live to Tell" or the Latin standard "Nosotros." Welsman has no problem performing in Spanish on "Nosotros"; in fact, she performs in a total of five languages on this disc -- not only English and Spanish, but also in Portuguese on "Eu Vim de Ahia," in Italian on "Ora" and in French on "Dans Cette Chambre." The latter is an example of a familiar melody with new lyrics; "Dans Cette Chambre" is Welsman's French-language interpretation of Gordon Lightfoot's "Beautiful." A Lightfoot melody and French lyrics might seem an unlikely combination, but it works for Welsman. This disc falls short of exceptional, although it's a pleasing, likable effort that is worth hearing if one has spent a lot of time listening to NAC favorites like Basia and Scott.
Для тех, кто любит lossless
По всем вопросам пишите личное сообщение пользователю M0p94ok.
04:18
647
Нет комментариев. Ваш будет первым!