Поиск

(Vocal Jazz) Carol Welsman - Journey - 2012, APE (tracks+.cue), lossless

(Vocal Jazz) Carol Welsman - Journey - 2012, APE (tracks+.cue), lossless
Треклист:
•Carol Welsman - Journey•
Жанр: Vocal Jazz
Страна-производитель диска: Canada
Год издания: 2012
Издатель (лейбл): Justin Time Records
Номер по каталогу: JUST 244-2
Аудиокодек: APE (*.ape)
Тип рипа: tracks+.cue
Битрейт аудио: lossless
Продолжительность: 00:57:43
Источник (релизер): Рип с диска.
Наличие сканов в содержимом раздачи: да
Треклист:
01. Route 66 [03:22]
02. On The Road Again [03:54]
03. You Came A Long Way From St. Louis [04:53]
04. By The Time I Get To Phoenix [05:47]
05. I Thought About you [04:17]
06. Volons Vers La Lune [03:29]
07. Two For The Road [03:06]
08. Where Can I Go Without You [03:55]
09. Samba De Aviao [03:40]
10. Travelin' Light [04:01]
11. Never Make Your Move Too Soon [03:28]
12. Detour Ahead [03:57]
13. Si J'etais Un Homme [05:46]
14. Twilight World [04:02]
 
Лог создания рипа
Exact Audio Copy V1.0 beta 3 from 29. August 2011
EAC extraction logfile from 8. March 2013, 15:22
Carol Welsman / Journey
Used drive : Optiarc DVD RW AD-5200A Adapter: 0 ID: 0
Read mode : Secure
Utilize accurate stream : Yes
Defeat audio cache : Yes
Make use of C2 pointers : No
Read offset correction : 48
Overread into Lead-In and Lead-Out : No
Fill up missing offset samples with silence : Yes
Delete leading and trailing silent blocks : No
Null samples used in CRC calculations : Yes
Used interface : Native Win32 interface for Win NT & 2000
Gap handling : Appended to previous track
Used output format : User Defined Encoder
Selected bitrate : 128 kBit/s
Quality : High
Add ID3 tag : No
Command line compressor : F:\Program Files\Monkey's Audio\wapet.exe
Additional command line options : %dest% -t "Genre=%genre%" -t "Artist=%artist%" -t "Title=%title%" -t "Album=%albumtitle%" -t "Year=%year%" -t "Track=%tracknr%" -t "Comment=%comment%" mac.exe %source% %dest% -c3000
TOC of the extracted CD
Track | Start | Length | Start sector | End sector
---------------------------------------------------------
1 | 0:00.00 | 3:22.51 | 0 | 15200
2 | 3:22.51 | 3:54.54 | 15201 | 32804
3 | 7:17.30 | 4:53.61 | 32805 | 54840
4 | 12:11.16 | 5:47.45 | 54841 | 80910
5 | 17:58.61 | 4:17.29 | 80911 | 100214
6 | 22:16.15 | 3:29.11 | 100215 | 115900
7 | 25:45.26 | 3:06.18 | 115901 | 129868
8 | 28:51.44 | 3:55.14 | 129869 | 147507
9 | 32:46.58 | 3:40.71 | 147508 | 164078
10 | 36:27.54 | 4:01.11 | 164079 | 182164
11 | 40:28.65 | 3:28.07 | 182165 | 197771
12 | 43:56.72 | 3:57.65 | 197772 | 215611
13 | 47:54.62 | 5:46.11 | 215612 | 241572
14 | 53:40.73 | 4:02.66 | 241573 | 259788
Track 1
Filename F:\2012.Carol Welsman - Journey\01. Route 66.wav
Pre-gap length 0:00:02.00
Peak level 95.7 %
Extraction speed 2.4 X
Track quality 100.0 %
Test CRC 132374B8
Copy CRC 132374B8
Accurately ripped (confidence 1) [61EC72A8] (AR v1)
Copy OK
Track 2
Filename F:\2012.Carol Welsman - Journey\02. On The Road Again.wav
Peak level 99.1 %
Extraction speed 2.3 X
Track quality 99.9 %
Test CRC EE7CEE92
Copy CRC EE7CEE92
Accurately ripped (confidence 1) [F30A26C5] (AR v1)
Copy OK
Track 3
Filename F:\2012.Carol Welsman - Journey\03. You Came A Long Way From St. Louis.wav
Peak level 100.0 %
Extraction speed 2.6 X
Track quality 99.9 %
Test CRC AED7507A
Copy CRC AED7507A
Accurately ripped (confidence 1) [B11CDD5F] (AR v1)
Copy OK
Track 4
Filename F:\2012.Carol Welsman - Journey\04. By The Time I Get To Phoenix.wav
Peak level 95.6 %
Extraction speed 2.9 X
Track quality 99.9 %
Test CRC 4D98C92B
Copy CRC 4D98C92B
Accurately ripped (confidence 1) [391A1F17] (AR v1)
Copy OK
Track 5
Filename F:\2012.Carol Welsman - Journey\05. I Thought About you.wav
Peak level 97.7 %
Extraction speed 3.3 X
Track quality 100.0 %
Test CRC 9E84D6F4
Copy CRC 9E84D6F4
Accurately ripped (confidence 1) [7AA3D78E] (AR v1)
Copy OK
Track 6
Filename F:\2012.Carol Welsman - Journey\06. Volons Vers La Lune.wav
Peak level 95.6 %
Extraction speed 2.9 X
Track quality 99.9 %
Test CRC 200BD0D7
Copy CRC 200BD0D7
Accurately ripped (confidence 1) [F9121310] (AR v1)
Copy OK
Track 7
Filename F:\2012.Carol Welsman - Journey\07. Two For The Road.wav
Pre-gap length 0:00:01.38
Peak level 100.0 %
Extraction speed 2.9 X
Track quality 99.9 %
Test CRC 52A6725A
Copy CRC 52A6725A
Accurately ripped (confidence 1) [18BDFF92] (AR v1)
Copy OK
Track 8
Filename F:\2012.Carol Welsman - Journey\08. Where Can I Go Without You.wav
Peak level 96.1 %
Extraction speed 3.4 X
Track quality 100.0 %
Test CRC 9800742E
Copy CRC 9800742E
Accurately ripped (confidence 1) [CEC9F761] (AR v1)
Copy OK
Track 9
Filename F:\2012.Carol Welsman - Journey\09. Samba De Aviao.wav
Peak level 100.0 %
Extraction speed 3.6 X
Track quality 100.0 %
Test CRC 60588AD3
Copy CRC 60588AD3
Accurately ripped (confidence 1) [E21DD30E] (AR v1)
Copy OK
Track 10
Filename F:\2012.Carol Welsman - Journey\10. Travelin' Light.wav
Pre-gap length 0:00:02.39
Peak level 85.1 %
Extraction speed 3.8 X
Track quality 100.0 %
Test CRC 12457E73
Copy CRC 12457E73
Accurately ripped (confidence 1) [5236E312] (AR v1)
Copy OK
Track 11
Filename F:\2012.Carol Welsman - Journey\11. Never Make Your Move Too Soon.wav
Peak level 97.5 %
Extraction speed 3.8 X
Track quality 100.0 %
Test CRC 0B4EE32F
Copy CRC 0B4EE32F
Accurately ripped (confidence 1) [69DB68D1] (AR v1)
Copy OK
Track 12
Filename F:\2012.Carol Welsman - Journey\12. Detour Ahead.wav
Peak level 95.7 %
Extraction speed 4.0 X
Track quality 100.0 %
Test CRC 71A9FACB
Copy CRC 71A9FACB
Accurately ripped (confidence 1) [D576DB27] (AR v1)
Copy OK
Track 13
Filename F:\2012.Carol Welsman - Journey\13. Si J'etais Un Homme.wav
Peak level 95.7 %
Extraction speed 4.3 X
Track quality 100.0 %
Test CRC FBA1F0A7
Copy CRC FBA1F0A7
Accurately ripped (confidence 1) [8592392E] (AR v1)
Copy OK
Track 14
Filename F:\2012.Carol Welsman - Journey\14. Twilight World.wav
Peak level 97.8 %
Extraction speed 4.3 X
Track quality 100.0 %
Test CRC 13B8301F
Copy CRC 13B8301F
Accurately ripped (confidence 1) [2A88C22A] (AR v1)
Copy OK
All tracks accurately ripped
No errors occurred
End of status report
==== Log checksum 2B29005AC209EE69D92C5D43A8B78833304C2CFCBB890231BE22D56FD3D66897 ====
 
Содержание индексной карты (.CUE)
REM GENRE Jazz
REM DATE 2012
REM DISCID C40D870E
REM COMMENT "ExactAudioCopy v1.0b3"
CATALOG 0068944024421
PERFORMER "Carol Welsman"
TITLE "Journey"
FILE "01. Route 66.wav" WAVE
TRACK 01 AUDIO
TITLE "Route 66"
PERFORMER "Carol Welsman"
ISRC CAJ221224401
INDEX 01 00:00:00
FILE "02. On The Road Again.wav" WAVE
TRACK 02 AUDIO
TITLE "On The Road Again"
PERFORMER "Carol Welsman"
ISRC CAJ221224402
INDEX 01 00:00:00
FILE "03. You Came A Long Way From St. Louis.wav" WAVE
TRACK 03 AUDIO
TITLE "You Came A Long Way From St. Louis"
PERFORMER "Carol Welsman"
ISRC CAJ221224403
INDEX 01 00:00:00
FILE "04. By The Time I Get To Phoenix.wav" WAVE
TRACK 04 AUDIO
TITLE "By The Time I Get To Phoenix"
PERFORMER "Carol Welsman"
ISRC CAJ221224404
INDEX 01 00:00:00
FILE "05. I Thought About you.wav" WAVE
TRACK 05 AUDIO
TITLE "I Thought About you"
PERFORMER "Carol Welsman"
ISRC CAJ221224405
INDEX 01 00:00:00
FILE "06. Volons Vers La Lune.wav" WAVE
TRACK 06 AUDIO
TITLE "Volons Vers La Lune"
PERFORMER "Carol Welsman"
ISRC CAJ221224406
INDEX 01 00:00:00
TRACK 07 AUDIO
TITLE "Two For The Road"
PERFORMER "Carol Welsman"
ISRC CAJ221224407
INDEX 00 03:27:48
FILE "07. Two For The Road.wav" WAVE
INDEX 01 00:00:00
FILE "08. Where Can I Go Without You.wav" WAVE
TRACK 08 AUDIO
TITLE "Where Can I Go Without You"
PERFORMER "Carol Welsman"
ISRC CAJ221224408
INDEX 01 00:00:00
FILE "09. Samba De Aviao.wav" WAVE
TRACK 09 AUDIO
TITLE "Samba De Aviao"
PERFORMER "Carol Welsman"
ISRC CAJ221224409
INDEX 01 00:00:00
TRACK 10 AUDIO
TITLE "Travelin' Light"
PERFORMER "Carol Welsman"
ISRC CAJ221224410
INDEX 00 03:38:32
FILE "10. Travelin' Light.wav" WAVE
INDEX 01 00:00:00
FILE "11. Never Make Your Move Too Soon.wav" WAVE
TRACK 11 AUDIO
TITLE "Never Make Your Move Too Soon"
PERFORMER "Carol Welsman"
ISRC CAJ221224411
INDEX 01 00:00:00
FILE "12. Detour Ahead.wav" WAVE
TRACK 12 AUDIO
TITLE "Detour Ahead"
PERFORMER "Carol Welsman"
ISRC CAJ221224412
INDEX 01 00:00:00
FILE "13. Si J'etais Un Homme.wav" WAVE
TRACK 13 AUDIO
TITLE "Si J'etais Un Homme"
PERFORMER "Carol Welsman"
ISRC CAJ221224413
INDEX 01 00:00:00
FILE "14. Twilight World.wav" WAVE
TRACK 14 AUDIO
TITLE "Twilight World"
PERFORMER "Carol Welsman"
ISRC CAJ221224414
INDEX 01 00:00:00
 
Состав
Personnel:
Carol Welsman - voc, p
Marc Rogers - b
Jimmy Brandy - dr, perc.
Pierre Cote - g
Ron Di Lauro - tp
По всем вопросам пишите личное сообщение пользователю M0p94ok.
07:38
385
Нет комментариев. Ваш будет первым!