Вы используете незарегистрированную версию компонента "Вкладки"!

Поиск

(Vocal Jazz) Carol Welsman - I Like Men: Reflections Of Miss Peggy Lee - 2009, FLAC (tracks+.cue), lossless

(Vocal Jazz) Carol Welsman - I Like Men: Reflections Of Miss Peggy Lee - 2009, FLAC (tracks+.cue), lossless
Треклист:
•Carol Welsman - I Like Men: Reflections Of Miss Peggy Lee•
Жанр: Vocal Jazz
Страна-производитель диска: USA
Год издания диска: 2009
Издатель (лейбл): Welcar Music
Аудиокодек: FLAC (*.flac)
Тип рипа: tracks+.cue
Битрейт аудио: lossless
Продолжительность: 00:51:12
Источник (релизер): Рип с диска.
Наличие сканов в содержимом раздачи: да
Треклист:
01. I Like Men
02. Do I Love You
03. Lover
04. I Love Being Here With You
05. The Folks Who Live on the Hill
06. Why Don't You Do Right
07. Just One of Those Things
08. Johnny Guitar
09. I'm Gonna Go Fishin'
10. Dance on Your Own
11. Remind Me
12. Fever
13. When You're Smiling
14. Angels on Your Pillow
 
Лог создания рипа
Exact Audio Copy V1.0 beta 3 from 29. August 2011
Отчёт EAC об извлечении, выполненном 4. марта 2012, 12:10
Carol Welsman / I Like Men: Reflections of Miss Peggy Lee
Дисковод: TSSTcorpCDDVDW SH-S223C Adapter: 5 ID: 0
Режим чтения : Достоверность
Использование точного потока : Да
Отключение кэша аудио : Да
Использование указателей C2 : Нет
Коррекция смещения при чтении : 697
Способность читать области Lead-in и Lead-out : Нет
Заполнение пропущенных сэмплов тишиной : Да
Удаление блоков с тишиной в начале и конце : Нет
При вычислениях CRC использовались нулевые сэмплы : Да
Интерфейс : Встроенный Win32-интерфейс для Win NT/2000
Обработка зазоров : Добавлено к предыдущему треку
Выходной формат : Пользовательский кодировщик
Выбранный битрейт : 128 kBit/s
Качество : Высокий
Добавление ID3-тега : Нет
Утилита сжатия : C:\Program Files\Exact Audio Copy\Flac\flac.exe
Дополнительные параметры : -V -8 -T "Genre=%genre%" -T "Artist=%artist%" -T "Title=%title%" -T "Album=%albumtitle%" -T "Date=%year%" -T "Tracknumber=%tracknr%" -T "Comment=%comment%" %source%
TOC извлечённого CD
Трек | Старт | Длительность | Начальный сектор | Конечный сектор
---------------------------------------------------------------------
1 | 0:00.00 | 2:37.11 | 0 | 11785
2 | 2:37.11 | 3:48.00 | 11786 | 28885
3 | 6:25.11 | 3:42.33 | 28886 | 45568
4 | 10:07.44 | 3:25.65 | 45569 | 61008
5 | 13:33.34 | 3:51.39 | 61009 | 78372
6 | 17:24.73 | 2:45.36 | 78373 | 90783
7 | 20:10.34 | 3:58.14 | 90784 | 108647
8 | 24:08.48 | 4:09.18 | 108648 | 127340
9 | 28:17.66 | 3:18.72 | 127341 | 142262
10 | 31:36.63 | 3:58.18 | 142263 | 160130
11 | 35:35.06 | 4:17.38 | 160131 | 179443
12 | 39:52.44 | 4:11.46 | 179444 | 198314
13 | 44:04.15 | 4:43.35 | 198315 | 219574
14 | 48:47.50 | 2:25.23 | 219575 | 230472
Трек 1
Имя файла C:\Шахматы\2009.Carol Welsman - I Like Men\01. I Like Men.wav
Длина предзазора 0:00:02.00
Пиковый уровень 98.8 %
Скорость извлечения 1.8 X
Качество трека 100.0 %
CRC теста 1D4D360C
CRC копии 1D4D360C
Трек не обнаружен в базе AccurateRip
Копирование... OK
Трек 2
Имя файла C:\Шахматы\2009.Carol Welsman - I Like Men\02. Do I Love You.wav
Длина предзазора 0:00:01.28
Пиковый уровень 98.8 %
Скорость извлечения 2.1 X
Качество трека 100.0 %
CRC теста 932232E7
CRC копии 932232E7
Трек не обнаружен в базе AccurateRip
Копирование... OK
Трек 3
Имя файла C:\Шахматы\2009.Carol Welsman - I Like Men\03. Lover.wav
Длина предзазора 0:00:01.53
Пиковый уровень 98.8 %
Скорость извлечения 1.8 X
Качество трека 99.9 %
CRC теста 10451328
CRC копии 10451328
Трек не обнаружен в базе AccurateRip
Копирование... OK
Трек 4
Имя файла C:\Шахматы\2009.Carol Welsman - I Like Men\04. I Love Being Here With You.wav
Пиковый уровень 98.8 %
Скорость извлечения 2.1 X
Качество трека 100.0 %
CRC теста 0B880642
CRC копии 0B880642
Трек не обнаружен в базе AccurateRip
Копирование... OK
Трек 5
Имя файла C:\Шахматы\2009.Carol Welsman - I Like Men\05. The Folks Who Live on the Hill.wav
Длина предзазора 0:00:02.32
Пиковый уровень 98.8 %
Скорость извлечения 2.1 X
Качество трека 100.0 %
CRC теста C0BD9878
CRC копии C0BD9878
Трек не обнаружен в базе AccurateRip
Копирование... OK
Трек 6
Имя файла C:\Шахматы\2009.Carol Welsman - I Like Men\06. Why Don't You Do Right.wav
Пиковый уровень 98.8 %
Скорость извлечения 2.0 X
Качество трека 100.0 %
CRC теста 085FD5F0
CRC копии 085FD5F0
Трек не обнаружен в базе AccurateRip
Копирование... OK
Трек 7
Имя файла C:\Шахматы\2009.Carol Welsman - I Like Men\07. Just One of Those Things.wav
Длина предзазора 0:00:02.11
Пиковый уровень 98.8 %
Скорость извлечения 2.1 X
Качество трека 100.0 %
CRC теста 4507D12C
CRC копии 4507D12C
Трек не обнаружен в базе AccurateRip
Копирование... OK
Трек 8
Имя файла C:\Шахматы\2009.Carol Welsman - I Like Men\08. Johnny Guitar.wav
Длина предзазора 0:00:02.70
Пиковый уровень 98.8 %
Скорость извлечения 2.1 X
Качество трека 100.0 %
CRC теста E8E9DF68
CRC копии E8E9DF68
Трек не обнаружен в базе AccurateRip
Копирование... OK
Трек 9
Имя файла C:\Шахматы\2009.Carol Welsman - I Like Men\09. I'm Gonna Go Fishin'.wav
Длина предзазора 0:00:02.27
Пиковый уровень 98.8 %
Скорость извлечения 2.0 X
Качество трека 100.0 %
CRC теста 4C2996F6
CRC копии 4C2996F6
Трек не обнаружен в базе AccurateRip
Копирование... OK
Трек 10
Имя файла C:\Шахматы\2009.Carol Welsman - I Like Men\10. Dance on Your Own.wav
Длина предзазора 0:00:02.06
Пиковый уровень 98.8 %
Скорость извлечения 1.0 X
Качество трека 99.6 %
CRC теста D7048CA4
CRC копии D7048CA4
Трек не обнаружен в базе AccurateRip
Копирование... OK
Трек 11
Имя файла C:\Шахматы\2009.Carol Welsman - I Like Men\11. Remind Me.wav
Длина предзазора 0:00:02.16
Пиковый уровень 98.8 %
Скорость извлечения 1.6 X
Качество трека 99.9 %
CRC теста A92E8861
CRC копии A92E8861
Трек не обнаружен в базе AccurateRip
Копирование... OK
Трек 12
Имя файла C:\Шахматы\2009.Carol Welsman - I Like Men\12. Fever.wav
Длина предзазора 0:00:01.42
Пиковый уровень 98.8 %
Скорость извлечения 2.1 X
Качество трека 100.0 %
CRC теста 16C13837
CRC копии 16C13837
Трек не обнаружен в базе AccurateRip
Копирование... OK
Трек 13
Имя файла C:\Шахматы\2009.Carol Welsman - I Like Men\13. When You're Smiling.wav
Длина предзазора 0:00:01.66
Пиковый уровень 98.8 %
Скорость извлечения 2.1 X
Качество трека 100.0 %
CRC теста 3F7BCCA1
CRC копии 3F7BCCA1
Трек не обнаружен в базе AccurateRip
Копирование... OK
Трек 14
Имя файла C:\Шахматы\2009.Carol Welsman - I Like Men\14. Angels on Your Pillow.wav
Длина предзазора 0:00:01.68
Пиковый уровень 98.8 %
Скорость извлечения 1.9 X
Качество трека 100.0 %
CRC теста 123D6095
CRC копии 123D6095
Трек не обнаружен в базе AccurateRip
Копирование... OK
Ни одного трека нет в базе AccurateRip
Ошибок не произошло
Конец отчёта
==== Контрольная сумма отчёта 7CA9015BAEC3B5CD03CB245B28E23A673859F728A4C72707D3F50AB26D4CF85C ====
 
Содержание индексной карты (.CUE)
REM GENRE Jazz
REM DATE 2009
REM DISCID D50C000E
REM COMMENT "ExactAudioCopy v1.0b3"
PERFORMER "Carol Welsman"
TITLE "I Like Men: Reflections of Miss Peggy Lee"
FILE "01. I Like Men.wav" WAVE
TRACK 01 AUDIO
TITLE "I Like Men"
PERFORMER "Carol Welsman"
ISRC USIF30918000
INDEX 01 00:00:00
TRACK 02 AUDIO
TITLE "Do I Love You"
PERFORMER "Carol Welsman"
ISRC USIF30918001
INDEX 00 02:35:58
FILE "02. Do I Love You.wav" WAVE
INDEX 01 00:00:00
TRACK 03 AUDIO
TITLE "Lover"
PERFORMER "Carol Welsman"
ISRC USIF30918002
INDEX 00 03:46:22
FILE "03. Lover.wav" WAVE
INDEX 01 00:00:00
FILE "04. I Love Being Here With You.wav" WAVE
TRACK 04 AUDIO
TITLE "I Love Being Here With You"
PERFORMER "Carol Welsman"
ISRC USIF30918003
INDEX 01 00:00:00
TRACK 05 AUDIO
TITLE "The Folks Who Live on the Hill"
PERFORMER "Carol Welsman"
ISRC USIF30918004
INDEX 00 03:23:33
FILE "05. The Folks Who Live on the Hill.wav" WAVE
INDEX 01 00:00:00
FILE "06. Why Don't You Do Right.wav" WAVE
TRACK 06 AUDIO
TITLE "Why Don't You Do Right"
PERFORMER "Carol Welsman"
ISRC USIF30918005
INDEX 01 00:00:00
TRACK 07 AUDIO
TITLE "Just One of Those Things"
PERFORMER "Carol Welsman"
ISRC USIF30918006
INDEX 00 02:43:25
FILE "07. Just One of Those Things.wav" WAVE
INDEX 01 00:00:00
TRACK 08 AUDIO
TITLE "Johnny Guitar"
PERFORMER "Carol Welsman"
ISRC USIF30918007
INDEX 00 03:55:19
FILE "08. Johnny Guitar.wav" WAVE
INDEX 01 00:00:00
TRACK 09 AUDIO
TITLE "I'm Gonna Go Fishin'"
PERFORMER "Carol Welsman"
ISRC USIF30918008
INDEX 00 04:06:66
FILE "09. I'm Gonna Go Fishin'.wav" WAVE
INDEX 01 00:00:00
TRACK 10 AUDIO
TITLE "Dance on Your Own"
PERFORMER "Carol Welsman"
ISRC USIF30918009
INDEX 00 03:16:66
FILE "10. Dance on Your Own.wav" WAVE
INDEX 01 00:00:00
TRACK 11 AUDIO
TITLE "Remind Me"
PERFORMER "Carol Welsman"
ISRC USIF30918010
INDEX 00 03:56:02
FILE "11. Remind Me.wav" WAVE
INDEX 01 00:00:00
TRACK 12 AUDIO
TITLE "Fever"
PERFORMER "Carol Welsman"
ISRC USIF30918011
INDEX 00 04:15:71
FILE "12. Fever.wav" WAVE
INDEX 01 00:00:00
TRACK 13 AUDIO
TITLE "When You're Smiling"
PERFORMER "Carol Welsman"
ISRC USIF30918012
INDEX 00 04:09:55
FILE "13. When You're Smiling.wav" WAVE
INDEX 01 00:00:00
TRACK 14 AUDIO
TITLE "Angels on Your Pillow"
PERFORMER "Carol Welsman"
ISRC USIF30918013
INDEX 00 04:41:42
FILE "14. Angels on Your Pillow.wav" WAVE
INDEX 01 00:00:00
Any questions - support@pro-jazz.com. Есть вопросы - support@pro-jazz.com
02:57
250
Нет комментариев. Ваш будет первым!