Поиск

(Vocal Jazz, Bossa Nova) [CD] Astrud Gilberto - Ipanema Girl: The Very Best of Astrud Gilberto - 2014, FLAC (image+.cue), lossless

Треклист:
Astrud Gilberto / Ipanema Girl: The Very Best of Astrud Gilberto
Жанр: Vocal Jazz, Bossa Nova
Носитель: CD
Страна-производитель диска: EU
Год издания: 2014
Издатель (лейбл): Spectrum Music, Universal MGC
Номер по каталогу: SPEC2185
Аудиокодек: FLAC (*.flac)
Тип рипа: image+.cue
Битрейт аудио: lossless
Продолжительность: 1:18:31
Источник (релизер): Собственный рип
Наличие сканов в содержимом раздачи: нет
Треклист:
1 The Girl From Ipanema - Antonio Carlos Jobim / Vinícius de Moraes - 2:47
feat: Stan Getz / João Gilberto / Antonio Carlos Jobim
2 Corcovado (Quiet Nights Of Quiet Stars) [Live] - Antonio Carlos Jobim - 2:52
feat: The New Stan Getz Quartet
3 Agua De Beber - Antonio Carlos Jobim / Vinícius de Moraes - 2:19
feat: Antonio Carlos Jobim
4 Photograph - Ray Gilbert / Antonio Carlos Jobim - 2:13
5 Tristeza - Haroldo Lobo - 3:31
feat: Walter Wanderley Trio / Walter Wanderley
6 Summer Samba (So Nice) - Marcos Valle / Paulo Sérgio Valle - 2:39
feat: Walter Wanderley Trio
7 Fly Me To The Moon - Bart Howard - 2:20
8 How Insensitive - Norman Gimbel / Antonio Carlos Jobim / Vinícius de Moraes - 2:46
9 Berimbau - Vinícius de Moraes / Baden Powell - 2:27
10 Once I Loved - Antonio Carlos Jobim / Vinícius de Moraes - 2:13
11 Dindi - Ray Gilbert / Antonio Carlos Jobim / Aloysio de Oliveira - 2:42
12 Beach Samba - Geraldo Cunha / Pery Ribeiro - 2:48
13 The Shadow Of Your Smile - Johnny Mandel / Paul Francis Webster - 2:32
14 She's A Carioca - Ray Gilbert / Antonio Carlos Jobim / Vinícius de Moraes - 2:27
15 Misty Roses - Tim Hardin - 2:38
16 Bim Bom - João Gilberto - 1:52
17 Meditation - Norman Gimble / Antonio Carlos Jobim / Newton Mendonça - 2:42
18 Call Me - Tony Hatch - 3:23
feat: Walter Wanderley Trio
19 O Ganso - Luiz Bonfá - 2:10
20 Crickets Sing For Anamaria - Ray Gilbert / Marcos Valle / Paulo Sérgio Valle - 1:33
21 (Take Me To) Aruanda - Norman Gimbel / Carlos Lyra / Geraldo Vandre - 2:29
22 Windy - Astrud Gilberto / Marcos Valle / Paulo Sérgio Valle - 2:47
23 Here's That Rainy Day - Johnny Burke / Jimmy Heusen - 2:47
feat: Walter Wanderley Trio
24 Stay - Gayle Caldwell - 2:43
25 Gentle Rain - Luiz Bonfá / Matt Dubey - 2:25
26 Trains And Boats And Planes - Burt Bacharach - 2:48
27 Canto de Ossanha (Let Go) - Vinícius de Moraes / Baden Powell - 3:05
28 Beginnings - Robert Lamm - 8:31
 
Лог создания рипа
Exact Audio Copy V1.0 beta 3 from 29. August 2011
Отчёт EAC об извлечении, выполненном 23. июня 2014, 19:54
Astrud Gilberto / Ipanema Girl: The Very Best of Astrud Gilberto
Дисковод: TSSTcorpCDDVDW SH-224DB Adapter: 0 ID: 0
Режим чтения : Достоверность
Использование точного потока : Да
Отключение кэша аудио : Да
Использование указателей C2 : Нет
Коррекция смещения при чтении : 6
Способность читать области Lead-in и Lead-out : Нет
Заполнение пропущенных сэмплов тишиной : Да
Удаление блоков с тишиной в начале и конце : Нет
При вычислениях CRC использовались нулевые сэмплы : Да
Интерфейс : Встроенный Win32-интерфейс для Win NT/2000
Выходной формат : Пользовательский кодировщик
Выбранный битрейт : 128 kBit/s
Качество : Высокий
Добавление ID3-тега : Нет
Утилита сжатия : C:\Program Files (x86)\FLAC\flac.exe
Дополнительные параметры : -V -8 -T "Date=%year%" -T "Genre=%genre%" %source%
TOC извлечённого CD
Трек | Старт | Длительность | Начальный сектор | Конечный сектор
---------------------------------------------------------------------
1 | 0:00.00 | 2:47.17 | 0 | 12541
2 | 2:47.17 | 2:52.21 | 12542 | 25462
3 | 5:39.38 | 2:19.10 | 25463 | 35897
4 | 7:58.48 | 2:12.48 | 35898 | 45845
5 | 10:11.21 | 3:31.22 | 45846 | 61692
6 | 13:42.43 | 2:39.32 | 61693 | 73649
7 | 16:22.00 | 2:19.47 | 73650 | 84121
8 | 18:41.47 | 2:46.32 | 84122 | 96603
9 | 21:28.04 | 2:26.44 | 96604 | 107597
10 | 23:54.48 | 2:13.17 | 107598 | 117589
11 | 26:07.65 | 2:42.04 | 117590 | 129743
12 | 28:49.69 | 2:48.30 | 129744 | 142373
13 | 31:38.24 | 2:32.20 | 142374 | 153793
14 | 34:10.44 | 2:27.33 | 153794 | 164851
15 | 36:38.02 | 2:38.24 | 164852 | 176725
16 | 39:16.26 | 1:52.04 | 176726 | 185129
17 | 41:08.30 | 2:42.02 | 185130 | 197281
18 | 43:50.32 | 3:22.73 | 197282 | 212504
19 | 47:13.30 | 2:09.59 | 212505 | 222238
20 | 49:23.14 | 1:33.04 | 222239 | 229217
21 | 50:56.18 | 2:28.59 | 229218 | 240376
22 | 53:25.02 | 2:47.25 | 240377 | 252926
23 | 56:12.27 | 2:46.49 | 252927 | 265425
24 | 58:59.01 | 2:43.19 | 265426 | 277669
25 | 61:42.20 | 2:25.23 | 277670 | 288567
26 | 64:07.43 | 2:47.40 | 288568 | 301132
27 | 66:55.08 | 3:05.01 | 301133 | 315008
28 | 70:00.09 | 8:31.33 | 315009 | 353366
Характеристики диапазона извлечения и сообщения об ошибках
Выбранный диапазон
Имя файла F:\Upload\Astrud Gilberto\2014 - Ipanema Girl - The Very Best of Astrud Gilberto\Astrud Gilberto - Ipanema Girl - The Very Best of Astrud Gilberto.wav
Пиковый уровень 100.0 %
Скорость извлечения 8.4 X
Качество диапазона 100.0 %
CRC теста 2BFF3381
CRC копии 2BFF3381
Копирование... OK
Ошибок не произошло
AccurateRip: сводка
Трек 1 отсутствует в базе данных
Трек 2 отсутствует в базе данных
Трек 3 отсутствует в базе данных
Трек 4 отсутствует в базе данных
Трек 5 отсутствует в базе данных
Трек 6 отсутствует в базе данных
Трек 7 отсутствует в базе данных
Трек 8 отсутствует в базе данных
Трек 9 отсутствует в базе данных
Трек 10 отсутствует в базе данных
Трек 11 отсутствует в базе данных
Трек 12 отсутствует в базе данных
Трек 13 отсутствует в базе данных
Трек 14 отсутствует в базе данных
Трек 15 отсутствует в базе данных
Трек 16 отсутствует в базе данных
Трек 17 отсутствует в базе данных
Трек 18 отсутствует в базе данных
Трек 19 отсутствует в базе данных
Трек 20 отсутствует в базе данных
Трек 21 отсутствует в базе данных
Трек 22 отсутствует в базе данных
Трек 23 отсутствует в базе данных
Трек 24 отсутствует в базе данных
Трек 25 отсутствует в базе данных
Трек 26 отсутствует в базе данных
Трек 27 отсутствует в базе данных
Трек 28 отсутствует в базе данных
Ни одного трека нет в базе AccurateRip
Конец отчёта
==== Контрольная сумма отчёта 0181664BDC55CDD5F7598780A27970C482C3A945A275FECC440C911AF2D63698 ====
 
Содержание индексной карты (.CUE)
REM GENRE "Jazz, Bossa Nova"
REM DATE 2014
REM DISCID 7512671C
REM COMMENT "ExactAudioCopy v1.0b3"
PERFORMER "Astrud Gilberto"
TITLE "Ipanema Girl: The Very Best of Astrud Gilberto"
FILE "Astrud Gilberto - Ipanema Girl - The Very Best of Astrud Gilberto.flac" WAVE
TRACK 01 AUDIO
TITLE "The Girl From Ipanema [Single Version]"
PERFORMER "Astrud Gilberto"
INDEX 01 00:00:00
TRACK 02 AUDIO
TITLE "Corcovado (Quiet Nights Of Quiet Stars) [Live At Cafe Au Go-Go/1964]"
PERFORMER "Astrud Gilberto"
INDEX 01 02:47:17
TRACK 03 AUDIO
TITLE "Agua De Beber"
PERFORMER "Astrud Gilberto"
INDEX 00 05:39:29
INDEX 01 05:39:38
TRACK 04 AUDIO
TITLE "Photograph"
PERFORMER "Astrud Gilberto"
INDEX 00 07:57:28
INDEX 01 07:58:48
TRACK 05 AUDIO
TITLE "Tristeza"
PERFORMER "Astrud Gilberto"
INDEX 00 10:10:56
INDEX 01 10:11:21
TRACK 06 AUDIO
TITLE "Summer Samba (So Nice) [Edit]"
PERFORMER "Astrud Gilberto"
INDEX 00 13:42:07
INDEX 01 13:42:43
TRACK 07 AUDIO
TITLE "Fly Me To The Moon"
PERFORMER "Astrud Gilberto"
INDEX 00 16:21:15
INDEX 01 16:22:00
TRACK 08 AUDIO
TITLE "How Insensitive"
PERFORMER "Astrud Gilberto"
INDEX 00 18:40:25
INDEX 01 18:41:47
TRACK 09 AUDIO
TITLE "Berimbau"
PERFORMER "Astrud Gilberto"
INDEX 00 21:27:46
INDEX 01 21:28:04
TRACK 10 AUDIO
TITLE "Once I Loved"
PERFORMER "Astrud Gilberto"
INDEX 00 23:53:71
INDEX 01 23:54:48
TRACK 11 AUDIO
TITLE "Dindi"
PERFORMER "Astrud Gilberto"
INDEX 00 26:06:10
INDEX 01 26:07:65
TRACK 12 AUDIO
TITLE "Beach Samba"
PERFORMER "Astrud Gilberto"
INDEX 00 28:48:59
INDEX 01 28:49:69
TRACK 13 AUDIO
TITLE "The Shadow Of Your Smile"
PERFORMER "Astrud Gilberto"
INDEX 00 31:37:56
INDEX 01 31:38:24
TRACK 14 AUDIO
TITLE "She's A Carioca"
PERFORMER "Astrud Gilberto"
INDEX 00 34:08:04
INDEX 01 34:10:44
TRACK 15 AUDIO
TITLE "Misty Roses"
PERFORMER "Astrud Gilberto"
INDEX 00 36:37:26
INDEX 01 36:38:02
TRACK 16 AUDIO
TITLE "Bim Bom"
PERFORMER "Astrud Gilberto"
INDEX 00 39:15:43
INDEX 01 39:16:26
TRACK 17 AUDIO
TITLE "Meditation"
PERFORMER "Astrud Gilberto"
INDEX 00 41:06:57
INDEX 01 41:08:30
TRACK 18 AUDIO
TITLE "Call Me"
PERFORMER "Astrud Gilberto"
INDEX 00 43:48:22
INDEX 01 43:50:32
TRACK 19 AUDIO
TITLE "O Ganso"
PERFORMER "Astrud Gilberto"
INDEX 00 47:10:74
INDEX 01 47:13:30
TRACK 20 AUDIO
TITLE "Crickets Sing For Anamaria"
PERFORMER "Astrud Gilberto"
INDEX 00 49:21:24
INDEX 01 49:23:14
TRACK 21 AUDIO
TITLE "(Take Me To) Aruanda"
PERFORMER "Astrud Gilberto"
INDEX 00 50:55:48
INDEX 01 50:56:18
TRACK 22 AUDIO
TITLE "Windy"
PERFORMER "Astrud Gilberto"
INDEX 00 53:24:17
INDEX 01 53:25:02
TRACK 23 AUDIO
TITLE "Here's That Rainy Day"
PERFORMER "Astrud Gilberto"
INDEX 00 56:10:35
INDEX 01 56:12:27
TRACK 24 AUDIO
TITLE "Stay"
PERFORMER "Astrud Gilberto"
INDEX 00 58:57:03
INDEX 01 58:59:01
TRACK 25 AUDIO
TITLE "Gentle Rain"
PERFORMER "Astrud Gilberto"
INDEX 00 61:40:52
INDEX 01 61:42:20
TRACK 26 AUDIO
TITLE "Trains And Boats And Planes"
PERFORMER "Astrud Gilberto"
INDEX 00 64:06:23
INDEX 01 64:07:43
TRACK 27 AUDIO
TITLE "Canto de Ossanha (Let Go)"
PERFORMER "Astrud Gilberto"
INDEX 00 66:54:52
INDEX 01 66:55:08
TRACK 28 AUDIO
TITLE "Beginnings"
PERFORMER "Astrud Gilberto"
INDEX 00 69:59:41
INDEX 01 70:00:09
16:30
255
Нет комментариев. Ваш будет первым!