Поиск

(Vocal Jazz, Bossa Nova) Astrud Gilberto - Look To The Rainbow (1965) - 2008 {Verve Originals}, FLAC (tracks+.cue), lossless

(Vocal Jazz, Bossa Nova) Astrud Gilberto - Look To The Rainbow (1965) - 2008 {Verve Originals}, FLAC (tracks+.cue), lossless
Треклист:
Astrud Gilberto – Look To The Rainbow (1965)
Жанр: Vocal Jazz, Bossa Nova
Страна-производитель диска: EU
Год издания: 2008
Издатель (лейбл): Verve Originals
Номер по каталогу: 06025 17679269
Аудиокодек: FLAC (*.flac)
Тип рипа: tracks+.cue
Битрейт аудио: lossless
Продолжительность: 31:49
Источник (релизер): tiburon
Наличие сканов в содержимом раздачи: да
Треклист:
01. Berimbou (2:25)
02. Once Upon A Summertime (3:03)
03. Felicidade (2:46)
04. I Will Wait For You (4:40)
05. Frevo (2:28)
06. Maria Quiet (Marie Moita) (1:54)
07. Look To The Rainbow (3:28)
08. Bim Bom (1:52)
09. Lugar Bonito (3:23)
10. El Preciso Aprender A Ser So (Learn To Live Alone) (3:21)
11. She's A Carioca (2:27)
 
 
Лог создания рипа
Exact Audio Copy V1.0 beta 1 from 15. November 2010
EAC extraction logfile from 24. April 2011, 9:48
Astrud Gilberto / Look To The Rainbow
Used drive : LITE-ON CD-RW SOHR-5238S Adapter: 6 ID: 3
Read mode : Secure
Utilize accurate stream : Yes
Defeat audio cache : Yes
Make use of C2 pointers : No
Read offset correction : 6
Overread into Lead-In and Lead-Out : No
Fill up missing offset samples with silence : Yes
Delete leading and trailing silent blocks : No
Null samples used in CRC calculations : Yes
Used interface : Installed external ASPI interface
Gap handling : Appended to previous track
Used output format : Internal WAV Routines
Sample format : 44.100 Hz; 16 Bit; Stereo
TOC of the extracted CD
Track | Start | Length | Start sector | End sector
---------------------------------------------------------
1 | 0:00.00 | 2:25.17 | 0 | 10891
2 | 2:25.17 | 3:03.29 | 10892 | 24645
3 | 5:28.46 | 2:46.35 | 24646 | 37130
4 | 8:15.06 | 4:40.01 | 37131 | 58131
5 | 12:55.07 | 2:27.71 | 58132 | 69227
6 | 15:23.03 | 1:54.28 | 69228 | 77805
7 | 17:17.31 | 3:28.11 | 77806 | 93416
8 | 20:45.42 | 1:51.69 | 93417 | 101810
9 | 22:37.36 | 3:22.51 | 101811 | 117011
10 | 26:00.12 | 3:21.37 | 117012 | 132123
11 | 29:21.49 | 2:27.34 | 132124 | 143182
Track 1
Filename F:\eac\Astrud Gilberto - Look To The Rainbow\01 - Berimbou.wav
Pre-gap length 0:00:02.00
Peak level 99.9 %
Extraction speed 5.0 X
Track quality 100.0 %
Test CRC 2C056855
Copy CRC 2C056855
Accurately ripped (confidence 10) [2670D173]
Copy OK
Track 2
Filename F:\eac\Astrud Gilberto - Look To The Rainbow\02 - Once Upon A Summertime.wav
Peak level 90.7 %
Extraction speed 5.6 X
Track quality 100.0 %
Test CRC 70DF532C
Copy CRC 70DF532C
Accurately ripped (confidence 10) [A33CE673]
Copy OK
Track 3
Filename F:\eac\Astrud Gilberto - Look To The Rainbow\03 - Felicidade.wav
Peak level 97.9 %
Extraction speed 5.9 X
Track quality 100.0 %
Test CRC 642B4EC4
Copy CRC 642B4EC4
Accurately ripped (confidence 10) [E136B3D6]
Copy OK
Track 4
Filename F:\eac\Astrud Gilberto - Look To The Rainbow\04 - I Will Wait For You.wav
Peak level 87.4 %
Extraction speed 6.9 X
Track quality 100.0 %
Test CRC 191D9F04
Copy CRC 191D9F04
Accurately ripped (confidence 10) [B50B663D]
Copy OK
Track 5
Filename F:\eac\Astrud Gilberto - Look To The Rainbow\05 - Frevo.wav
Peak level 94.7 %
Extraction speed 6.6 X
Track quality 100.0 %
Test CRC F2B5947D
Copy CRC F2B5947D
Accurately ripped (confidence 10) [4417CE2C]
Copy OK
Track 6
Filename F:\eac\Astrud Gilberto - Look To The Rainbow\06 - Maria Quiet (Marie Moita).wav
Peak level 89.1 %
Extraction speed 6.5 X
Track quality 100.0 %
Test CRC E8BF5B07
Copy CRC E8BF5B07
Accurately ripped (confidence 10) [598981D5]
Copy OK
Track 7
Filename F:\eac\Astrud Gilberto - Look To The Rainbow\07 - Look To The Rainbow.wav
Peak level 85.3 %
Extraction speed 7.6 X
Track quality 100.0 %
Test CRC 8ED77CF6
Copy CRC 8ED77CF6
Accurately ripped (confidence 10) [BD5D8038]
Copy OK
Track 8
Filename F:\eac\Astrud Gilberto - Look To The Rainbow\08 - Bim Bom.wav
Peak level 100.0 %
Extraction speed 5.6 X
Track quality 99.9 %
Test CRC 2E0DDF54
Copy CRC 2E0DDF54
Accurately ripped (confidence 10) [6ABA6FAC]
Copy OK
Track 9
Filename F:\eac\Astrud Gilberto - Look To The Rainbow\09 - Lugar Bonito.wav
Peak level 78.6 %
Extraction speed 8.1 X
Track quality 100.0 %
Test CRC B6CE3551
Copy CRC B6CE3551
Accurately ripped (confidence 10) [4F2802E5]
Copy OK
Track 10
Filename F:\eac\Astrud Gilberto - Look To The Rainbow\10 - El Preciso Aprender A Ser So (Learn To Live Alone).wav
Peak level 100.0 %
Extraction speed 8.4 X
Track quality 100.0 %
Test CRC BB62BBCB
Copy CRC BB62BBCB
Accurately ripped (confidence 10) [E7E09BC8]
Copy OK
Track 11
Filename F:\eac\Astrud Gilberto - Look To The Rainbow\11 - She's A Carioca.wav
Peak level 89.2 %
Extraction speed 6.7 X
Track quality 99.9 %
Test CRC 93B14482
Copy CRC 93B14482
Accurately ripped (confidence 10) [755766C4]
Copy OK
All tracks accurately ripped
No errors occurred
End of status report
==== Log checksum 5DB3C11A48F91A8D6F41803422C6D1507FBD67A7305EB3CFEFA0B301672D8F02 ====
 
Содержание индексной карты (.CUE)
REM GENRE Latin
REM DATE 1965
REM DISCID 9907750B
REM COMMENT "ExactAudioCopy v1.0b1"
PERFORMER "Astrud Gilberto"
TITLE "Look To The Rainbow"
FILE "01 - Berimbou.flac" WAVE
TRACK 01 AUDIO
TITLE "Berimbou"
PERFORMER "Astrud Gilberto"
INDEX 01 00:00:00
FILE "02 - Once Upon A Summertime.flac" WAVE
TRACK 02 AUDIO
TITLE "Once Upon A Summertime"
PERFORMER "Astrud Gilberto"
INDEX 01 00:00:00
FILE "03 - Felicidade.flac" WAVE
TRACK 03 AUDIO
TITLE "Felicidade"
PERFORMER "Astrud Gilberto"
INDEX 01 00:00:00
FILE "04 - I Will Wait For You.flac" WAVE
TRACK 04 AUDIO
TITLE "I Will Wait For You"
PERFORMER "Astrud Gilberto"
INDEX 01 00:00:00
FILE "05 - Frevo.flac" WAVE
TRACK 05 AUDIO
TITLE "Frevo"
PERFORMER "Astrud Gilberto"
INDEX 01 00:00:00
FILE "06 - Maria Quiet (Marie Moita).flac" WAVE
TRACK 06 AUDIO
TITLE "Maria Quiet (Marie Moita)"
PERFORMER "Astrud Gilberto"
INDEX 01 00:00:00
FILE "07 - Look To The Rainbow.flac" WAVE
TRACK 07 AUDIO
TITLE "Look To The Rainbow"
PERFORMER "Astrud Gilberto"
INDEX 01 00:00:00
FILE "08 - Bim Bom.flac" WAVE
TRACK 08 AUDIO
TITLE "Bim Bom"
PERFORMER "Astrud Gilberto"
INDEX 01 00:00:00
FILE "09 - Lugar Bonito.flac" WAVE
TRACK 09 AUDIO
TITLE "Lugar Bonito"
PERFORMER "Astrud Gilberto"
INDEX 01 00:00:00
FILE "10 - El Preciso Aprender A Ser So (Learn To Live Alone).flac" WAVE
TRACK 10 AUDIO
TITLE "El Preciso Aprender A Ser So (Learn To Live Alone)"
PERFORMER "Astrud Gilberto"
INDEX 01 00:00:00
FILE "11 - She's A Carioca.flac" WAVE
TRACK 11 AUDIO
TITLE "She's A Carioca"
PERFORMER "Astrud Gilberto"
INDEX 01 00:00:00
12:57
373
Нет комментариев. Ваш будет первым!