Поиск

(Vocal Jazz, Bossa) Maria Rita - Elo - 2011, FLAC (tracks+.cue), lossless

(Vocal Jazz, Bossa) Maria Rita - Elo - 2011, FLAC (tracks+.cue), lossless
Треклист:
Maria Rita / Elo
Посмотрите, кто пришёл, чтобы разбить мне сердце...
Скажи мне, зеркальце, так почему же я танцую самбу?...
Жанр: Vocal Jazz, Bossa
Год издания диска: 2011
Издатель (лейбл): WM Brazil
Аудиокодек: FLAC (*.flac)
Тип рипа: tracks+.cue
Битрейт аудио: lossless
Продолжительность: 39:46
Источник (релизер): artmuss
Наличие сканов в содержимом раздачи: нет
Треклист:
01. Conceicao dos coqueiros
02. Santana
03. Perfeitamente
04. Coracao a batucar
05. Menino do Rio
06. Pra matar meu coracao
07. A historia de Lilly Braun
08. Nem um dia
09. A outra
10. So de voce
11. Coracao em desalinho (bonus track)
Красивые, сочные аранжировки и такой же красивый сочный вокал.
Приятный альбом.
ELO в переводе с португальского - Связь...
 
Лог создания рипа
X Lossless Decoder version 20111113 (137.1)
XLD extraction logfile from 2011-11-24 13:05:12 +0000
Maria Rita / Elo
Used drive : HL-DT-ST DVDRW GA11N (revision JA18)
Ripper mode : XLD Secure Ripper
Disable audio cache : OK for the drive with a cache less than 1375KiB
Make use of C2 pointers : NO
Read offset correction : 667
Max retry count : 100
Gap status : Analyzed, Appended (except HTOA)
TOC of the extracted CD
Track | Start | Length | Start sector | End sector
---------------------------------------------------------
1 | 00:00:00 | 02:59:63 | 0 | 13487
2 | 02:59:63 | 03:16:70 | 13488 | 28257
3 | 06:16:58 | 03:50:21 | 28258 | 45528
4 | 10:07:04 | 03:52:52 | 45529 | 62980
5 | 13:59:56 | 04:24:35 | 62981 | 82815
6 | 18:24:16 | 03:06:34 | 82816 | 96799
7 | 21:30:50 | 04:00:04 | 96800 | 114803
8 | 25:30:54 | 03:55:45 | 114804 | 132473
9 | 29:26:24 | 03:12:53 | 132474 | 146926
10 | 32:39:02 | 03:45:07 | 146927 | 163808
11 | 36:24:09 | 03:22:12 | 163809 | 178970
AccurateRip Summary
Disc not found in AccurateRip DB.
All Tracks
Album gain : -7.39 dB
Peak : 0.997833
Statistics
Read error : 0
Jitter error (maybe fixed) : 0
Retry sector count : 0
Damaged sector count : 0
Track 01
Filename : /Users/festat/Documents/Maria Rita - Elo (2011) [FLAC]/01 Conceição Dos Coqueiros.flac
Pre-gap length : 00:02:00
Track gain : -7.65 dB
Peak : 0.981537
CRC32 hash (test run) : C5D49F53
CRC32 hash : C5D49F53
CRC32 hash (skip zero) : 96A18DF9
AccurateRip signature : FEB06133
->Track not present in AccurateRip database.
Statistics
Read error : 0
Jitter error (maybe fixed) : 0
Retry sector count : 0
Damaged sector count : 0
Track 02
Filename : /Users/festat/Documents/Maria Rita - Elo (2011) [FLAC]/02 Santana.flac
Track gain : -8.09 dB
Peak : 0.997833
CRC32 hash (test run) : 653C39BB
CRC32 hash : 653C39BB
CRC32 hash (skip zero) : 89097394
AccurateRip signature : 78E3564F
->Track not present in AccurateRip database.
Statistics
Read error : 0
Jitter error (maybe fixed) : 0
Retry sector count : 0
Damaged sector count : 0
Track 03
Filename : /Users/festat/Documents/Maria Rita - Elo (2011) [FLAC]/03 Perfeitamente.flac
Track gain : -7.71 dB
Peak : 0.981812
CRC32 hash (test run) : 08CDD83A
CRC32 hash : 08CDD83A
CRC32 hash (skip zero) : AA1FBD37
AccurateRip signature : 8A79562D
->Track not present in AccurateRip database.
Statistics
Read error : 0
Jitter error (maybe fixed) : 0
Retry sector count : 0
Damaged sector count : 0
Track 04
Filename : /Users/festat/Documents/Maria Rita - Elo (2011) [FLAC]/04 Coração A Batucar.flac
Track gain : -6.77 dB
Peak : 0.981873
CRC32 hash (test run) : 1E444BD1
CRC32 hash : 1E444BD1
CRC32 hash (skip zero) : 4ED2FCC1
AccurateRip signature : 79C3FEEF
->Track not present in AccurateRip database.
Statistics
Read error : 0
Jitter error (maybe fixed) : 0
Retry sector count : 0
Damaged sector count : 0
Track 05
Filename : /Users/festat/Documents/Maria Rita - Elo (2011) [FLAC]/05 Menino Do Rio.flac
Track gain : -5.80 dB
Peak : 0.981781
CRC32 hash (test run) : 1ED698A1
CRC32 hash : 1ED698A1
CRC32 hash (skip zero) : 791855EF
AccurateRip signature : 03025590
->Track not present in AccurateRip database.
Statistics
Read error : 0
Jitter error (maybe fixed) : 0
Retry sector count : 0
Damaged sector count : 0
Track 06
Filename : /Users/festat/Documents/Maria Rita - Elo (2011) [FLAC]/06 Pra Matar Meu Coração.flac
Track gain : -6.50 dB
Peak : 0.981628
CRC32 hash (test run) : A40F0AC9
CRC32 hash : A40F0AC9
CRC32 hash (skip zero) : 527F7C99
AccurateRip signature : 6B8C300F
->Track not present in AccurateRip database.
Statistics
Read error : 0
Jitter error (maybe fixed) : 0
Retry sector count : 0
Damaged sector count : 0
Track 07
Filename : /Users/festat/Documents/Maria Rita - Elo (2011) [FLAC]/07 A HistГіria De Lilly Braun.flac
Pre-gap length : 00:01:25
Track gain : -6.80 dB
Peak : 0.981720
CRC32 hash (test run) : 8B3844AD
CRC32 hash : 8B3844AD
CRC32 hash (skip zero) : 2D1F16C8
AccurateRip signature : 1C9779CF
->Track not present in AccurateRip database.
Statistics
Read error : 0
Jitter error (maybe fixed) : 0
Retry sector count : 0
Damaged sector count : 0
Track 08
Filename : /Users/festat/Documents/Maria Rita - Elo (2011) [FLAC]/08 Nem Um Dia.flac
Pre-gap length : 00:01:47
Track gain : -7.74 dB
Peak : 0.981781
CRC32 hash (test run) : B8082240
CRC32 hash : B8082240
CRC32 hash (skip zero) : 4D3590D9
AccurateRip signature : 88D03998
->Track not present in AccurateRip database.
Statistics
Read error : 0
Jitter error (maybe fixed) : 0
Retry sector count : 0
Damaged sector count : 0
Track 09
Filename : /Users/festat/Documents/Maria Rita - Elo (2011) [FLAC]/09 A Outra.flac
Track gain : -5.58 dB
Peak : 0.981812
CRC32 hash (test run) : 2398C4C3
CRC32 hash : 2398C4C3
CRC32 hash (skip zero) : EEFD0291
AccurateRip signature : A53633B5
->Track not present in AccurateRip database.
Statistics
Read error : 0
Jitter error (maybe fixed) : 0
Retry sector count : 0
Damaged sector count : 0
Track 10
Filename : /Users/festat/Documents/Maria Rita - Elo (2011) [FLAC]/10 SГі De VocГЄ.flac
Track gain : -6.85 dB
Peak : 0.981659
CRC32 hash (test run) : 91D21688
CRC32 hash : 91D21688
CRC32 hash (skip zero) : FA7123F5
AccurateRip signature : E3893073
->Track not present in AccurateRip database.
Statistics
Read error : 0
Jitter error (maybe fixed) : 0
Retry sector count : 0
Damaged sector count : 0
Track 11
Filename : /Users/festat/Documents/Maria Rita - Elo (2011) [FLAC]/11 Coração Em Desalinho [Bonus Track].flac
Pre-gap length : 00:05:44
Track gain : -8.17 dB
Peak : 0.981842
CRC32 hash (test run) : 61F7F9B9
CRC32 hash : 61F7F9B9
CRC32 hash (skip zero) : 446294DF
AccurateRip signature : FDCDC40C
->Track not present in AccurateRip database.
Statistics
Read error : 0
Jitter error (maybe fixed) : 0
Retry sector count : 0
Damaged sector count : 0
No errors occurred
End of status report
 
Содержание индексной карты (.CUE)
TITLE "Elo"
PERFORMER "Maria Rita"
REM DATE "2011"
REM DISCNUMBER 1
REM TOTALDISCS 1
REM DISCID 9309520B
REM REPLAYGAIN_ALBUM_GAIN -7.39 dB
REM REPLAYGAIN_ALBUM_PEAK 0.997833
FILE "01 Conceicao dos coqueiros.flac" WAVE
TRACK 01 AUDIO
TITLE "Conceicao dos coqueiros"
SONGWRITER "Alexandre Bicudo/Lulu Oliveira/Lula Queiroga"
ISRC BRWMB1100279
REM REPLAYGAIN_TRACK_GAIN -7.65 dB
REM REPLAYGAIN_TRACK_PEAK 0.981537
INDEX 01 00:00:00
FILE "02 Santana.flac" WAVE
TRACK 02 AUDIO
TITLE "Santana"
ISRC BRWMB1100280
REM REPLAYGAIN_TRACK_GAIN -8.09 dB
REM REPLAYGAIN_TRACK_PEAK 0.997833
INDEX 01 00:00:00
FILE "03 Perfeitamente.flac" WAVE
TRACK 03 AUDIO
TITLE "Perfeitamente"
SONGWRITER "Francisco Bosco/Fred Martins"
ISRC BRWMB1100281
REM REPLAYGAIN_TRACK_GAIN -7.71 dB
REM REPLAYGAIN_TRACK_PEAK 0.981812
INDEX 01 00:00:00
FILE "04 Coracao a batucar.flac" WAVE
TRACK 04 AUDIO
TITLE "Coracao a batucar"
SONGWRITER "Davi Moraes/Alvinho Lancellotti"
ISRC BRWMB1100282
REM REPLAYGAIN_TRACK_GAIN -6.77 dB
REM REPLAYGAIN_TRACK_PEAK 0.981873
INDEX 01 00:00:00
FILE "05 Menino Do Rio.flac" WAVE
TRACK 05 AUDIO
TITLE "Menino Do Rio"
SONGWRITER "Caetano Veloso"
ISRC BRWMB1100283
REM REPLAYGAIN_TRACK_GAIN -5.80 dB
REM REPLAYGAIN_TRACK_PEAK 0.981781
INDEX 01 00:00:00
FILE "06 Pra matar meu coracao.flac" WAVE
TRACK 06 AUDIO
TITLE "Pra matar meu coracao"
SONGWRITER "Daniel Jobim/Pedro Baby"
ISRC BRWMB1100278
REM REPLAYGAIN_TRACK_GAIN -6.50 dB
REM REPLAYGAIN_TRACK_PEAK 0.981628
INDEX 01 00:00:00
TRACK 07 AUDIO
TITLE "A historia de Lilly Braun"
SONGWRITER "Chico Buarque/Edu Lobo"
ISRC BRWMB1100284
REM REPLAYGAIN_TRACK_GAIN -6.80 dB
REM REPLAYGAIN_TRACK_PEAK 0.981720
INDEX 00 03:05:09
FILE "07 A historia de Lilly Braun.flac" WAVE
INDEX 01 00:00:00
TRACK 08 AUDIO
TITLE "Nem Um Dia"
SONGWRITER "Djavan"
ISRC BRWMB1100285
REM REPLAYGAIN_TRACK_GAIN -7.74 dB
REM REPLAYGAIN_TRACK_PEAK 0.981781
INDEX 00 03:58:32
FILE "08 Nem Um Dia.flac" WAVE
INDEX 01 00:00:00
FILE "09 A Outra.flac" WAVE
TRACK 09 AUDIO
TITLE "A Outra"
SONGWRITER "Marcelo Camelo"
ISRC BRWMB1100286
REM REPLAYGAIN_TRACK_GAIN -5.58 dB
REM REPLAYGAIN_TRACK_PEAK 0.981812
INDEX 01 00:00:00
FILE "10 So de voce.flac" WAVE
TRACK 10 AUDIO
TITLE "So de voce"
SONGWRITER "Roberto De Carvalho/Rita Lee"
ISRC BRWMB1100287
REM REPLAYGAIN_TRACK_GAIN -6.85 dB
REM REPLAYGAIN_TRACK_PEAK 0.981659
INDEX 01 00:00:00
TRACK 11 AUDIO
TITLE "Coracao em desalinho [Bonus Track]"
SONGWRITER "Ratinho/Monarco"
ISRC BRWMB1000211
REM REPLAYGAIN_TRACK_GAIN -8.17 dB
REM REPLAYGAIN_TRACK_PEAK 0.981842
INDEX 00 03:39:38
FILE "11 Coracao em desalinho [Bonus Track].flac" WAVE
INDEX 01 00:00:00
 
Лог проверки качества
AUDIOCHECKER v2.0 beta (build 457) - by Dester - opdester@freemail.hu
~~~~~~~~~~~~~~~~~~~~~~~~~~~~~~~~~~
-=== DO NOT EDIT THIS FILE! ===-
Path: ...\Maria Rita - Elo (2011) [FLAC]
01 -=- 01 Conceic?a?o Dos Coqueiros.flac -=- ERROR
02 -=- 02 Santana.flac -=- CDDA (100%)
03 -=- 03 Perfeitamente.flac -=- CDDA (100%)
04 -=- 04 Corac?a?o A Batucar.flac -=- ERROR
05 -=- 05 Menino Do Rio.flac -=- CDDA (100%)
06 -=- 06 Pra Matar Meu Corac?a?o.flac -=- ERROR
07 -=- 07 A Histo?ria De Lilly Braun.flac -=- ERROR
08 -=- 08 Nem Um Dia.flac -=- CDDA (99%)
09 -=- 09 A Outra.flac -=- CDDA (100%)
10 -=- 10 So? De Voce?.flac -=- ERROR
11 -=- 11 Corac?a?o Em Desalinho [Bonus Track].flac -=- ERROR
Приятных впечатлений!
Any questions - support@pro-jazz.com
To become a power user - read FAQ.
01:00
577
Нет комментариев. Ваш будет первым!