Поиск

(Vocal Jazz, Bop) Eddie Jefferson - Things Are Getting Better - 1974 (1996), FLAC (tracks+.cue), lossless

(Vocal Jazz, Bop) Eddie Jefferson - Things Are Getting Better - 1974 (1996), FLAC (tracks+.cue), lossless
Треклист:
Eddie Jefferson - Things Are Getting Better
Жанр: Vocal Jazz, Bop
Страна-производитель диска: США
Год издания: 1996
Издатель (лейбл): Muse
Номер по каталогу: MCD 5043
Аудиокодек: FLAC (*.flac)
Тип рипа: tracks+.cue
Битрейт аудио: lossless
Продолжительность: 37:34
Источник (релизер): tibopix (what)
Наличие сканов в содержимом раздачи: нет
Треклист:
01. Bitches Brew (Davis-Hall) - 8:51
02. Things Are Getting Better (Jefferson-Adderley) - 3:28
03. Freedom Jazz Dance (Jefferson-Harris) - 4:03
04. Night in Tunisia (Gillespie-Paparelli) - 3:24
05. Trane's Blues (Coltrane-Hall) - 4:51
06. I Just Got Back in Town (Jefferson-Moody) - 4:33
07. Billie's Bounce (Jefferson-Parker) - 4:09
08. Thank You - Falletinme Be Mice Elf Agin (Stewart) - 4:15
Состав:
Eddie Jefferson - vocals
Joe Newman - trumpet
Billy Mitchell - tenor saxophone, flute, bass clarinet
Mickey Tucker - piano, electric piano, organ, saw
Sam Jones - bass
Eddie Gladden - drums
Mildred Weston, Conrad Buckman - vocals
Recorded on March 5, 1974.
 
Лог создания рипа
X Lossless Decoder version 20130720 (144.0)
XLD extraction logfile from 2013-08-27 15:47:40 -0400
Eddie Jefferson / Things Are Getting Better
Used drive : MATSHITA DVD-R UJ-868 (revision KB19)
Media type : Pressed CD
Ripper mode : CDParanoia III 10.2
Disable audio cache : OK for the drive with a cache less than 2750KiB
Make use of C2 pointers : NO
Read offset correction : 102
Max retry count : 20
Gap status : Analyzed, Appended (except HTOA)
TOC of the extracted CD
Track | Start | Length | Start sector | End sector
---------------------------------------------------------
1 | 00:00:00 | 08:51:00 | 0 | 39824
2 | 08:51:00 | 03:28:17 | 39825 | 55441
3 | 12:19:17 | 04:02:50 | 55442 | 73641
4 | 16:21:67 | 03:24:03 | 73642 | 88944
5 | 19:45:70 | 04:51:20 | 88945 | 110789
6 | 24:37:15 | 04:33:37 | 110790 | 131301
7 | 29:10:52 | 04:08:70 | 131302 | 149971
8 | 33:19:47 | 04:14:43 | 149972 | 169064
AccurateRip Summary (DiscID: 000c7f27-0050b9f5-6508ce08)
Track 01 : OK (v1, confidence 2/2)
Track 02 : OK (v1, confidence 2/2)
Track 03 : OK (v1, confidence 2/2)
Track 04 : OK (v1, confidence 2/2)
Track 05 : OK (v1, confidence 2/2)
Track 06 : OK (v1, confidence 2/2)
Track 07 : OK (v1, confidence 2/2)
Track 08 : OK (v1, confidence 2/2)
->All tracks accurately ripped.
All Tracks
Album gain : -0.17 dB
Peak : 0.984344
Statistics
Read error : 0
Skipped (treated as error) : 0
Edge jitter error (maybe fixed) : 0
Atom jitter error (maybe fixed) : 0
Drift error (maybe fixed) : 0
Dropped bytes error (maybe fixed) : 0
Duplicated bytes error (maybe fixed) : 0
Track 01
Filename : /XLD/01 Eddie Jefferson - Bitches Brew.flac
Pre-gap length : 00:02:00
Track gain : 0.10 dB
Peak : 0.826141
CRC32 hash (test run) : 8D30183A
CRC32 hash : 8D30183A
CRC32 hash (skip zero) : 44C909CB
AccurateRip v1 signature : 35D18C25
AccurateRip v2 signature : DAADC836
->Accurately ripped (v1, confidence 2/2)
Statistics
Read error : 0
Skipped (treated as error) : 0
Edge jitter error (maybe fixed) : 0
Atom jitter error (maybe fixed) : 0
Drift error (maybe fixed) : 0
Dropped bytes error (maybe fixed) : 0
Duplicated bytes error (maybe fixed) : 0
Inconsistency in error sectors : 0
Track 02
Filename : /XLD/02 Eddie Jefferson - Things Are Getting Better.flac
Pre-gap length : 00:02:05
Track gain : -1.10 dB
Peak : 0.718567
CRC32 hash (test run) : B9E210DE
CRC32 hash : B9E210DE
CRC32 hash (skip zero) : 26EB192D
AccurateRip v1 signature : FE1BF04E
AccurateRip v2 signature : F1A0D8C6
->Accurately ripped (v1, confidence 2/2)
Statistics
Read error : 0
Skipped (treated as error) : 0
Edge jitter error (maybe fixed) : 0
Atom jitter error (maybe fixed) : 0
Drift error (maybe fixed) : 0
Dropped bytes error (maybe fixed) : 0
Duplicated bytes error (maybe fixed) : 0
Inconsistency in error sectors : 0
Track 03
Filename : /XLD/03 Eddie Jefferson - Freedom Jazz Dance.flac
Pre-gap length : 00:02:45
Track gain : -1.28 dB
Peak : 0.935059
CRC32 hash (test run) : 1D474F82
CRC32 hash : 1D474F82
CRC32 hash (skip zero) : CF41C28D
AccurateRip v1 signature : CE804B22
AccurateRip v2 signature : 93A206E7
->Accurately ripped (v1, confidence 2/2)
Statistics
Read error : 0
Skipped (treated as error) : 0
Edge jitter error (maybe fixed) : 0
Atom jitter error (maybe fixed) : 0
Drift error (maybe fixed) : 0
Dropped bytes error (maybe fixed) : 0
Duplicated bytes error (maybe fixed) : 0
Inconsistency in error sectors : 0
Track 04
Filename : /XLD/04 Eddie Jefferson - Night In Tunisia.flac
Pre-gap length : 00:01:55
Track gain : -0.09 dB
Peak : 0.769653
CRC32 hash (test run) : 0D679952
CRC32 hash : 0D679952
CRC32 hash (skip zero) : 126A03CE
AccurateRip v1 signature : 411C4762
AccurateRip v2 signature : E2DC4A02
->Accurately ripped (v1, confidence 2/2)
Statistics
Read error : 0
Skipped (treated as error) : 0
Edge jitter error (maybe fixed) : 0
Atom jitter error (maybe fixed) : 0
Drift error (maybe fixed) : 0
Dropped bytes error (maybe fixed) : 0
Duplicated bytes error (maybe fixed) : 0
Inconsistency in error sectors : 0
Track 05
Filename : /XLD/05 Eddie Jefferson - Trane's Blues.flac
Pre-gap length : 00:08:70
Track gain : 0.80 dB
Peak : 0.868439
CRC32 hash (test run) : 9CFEAB80
CRC32 hash : 9CFEAB80
CRC32 hash (skip zero) : 742E9385
AccurateRip v1 signature : CFFDB310
AccurateRip v2 signature : DAAADE96
->Accurately ripped (v1, confidence 2/2)
Statistics
Read error : 0
Skipped (treated as error) : 0
Edge jitter error (maybe fixed) : 0
Atom jitter error (maybe fixed) : 0
Drift error (maybe fixed) : 0
Dropped bytes error (maybe fixed) : 0
Duplicated bytes error (maybe fixed) : 0
Inconsistency in error sectors : 0
Track 06
Filename : /XLD/06 Eddie Jefferson - I Just Got Back In Town.flac
Pre-gap length : 00:02:10
Track gain : -0.41 dB
Peak : 0.819244
CRC32 hash (test run) : 92B2A486
CRC32 hash : 92B2A486
CRC32 hash (skip zero) : 765A88B8
AccurateRip v1 signature : 25166CE9
AccurateRip v2 signature : EB5CB13C
->Accurately ripped (v1, confidence 2/2)
Statistics
Read error : 0
Skipped (treated as error) : 0
Edge jitter error (maybe fixed) : 0
Atom jitter error (maybe fixed) : 0
Drift error (maybe fixed) : 0
Dropped bytes error (maybe fixed) : 0
Duplicated bytes error (maybe fixed) : 0
Inconsistency in error sectors : 0
Track 07
Filename : /XLD/07 Eddie Jefferson - Billie's Bounce.flac
Pre-gap length : 00:02:20
Track gain : 0.03 dB
Peak : 0.724701
CRC32 hash (test run) : A77BA16F
CRC32 hash : A77BA16F
CRC32 hash (skip zero) : 2F1A563E
AccurateRip v1 signature : BFEAC5E5
AccurateRip v2 signature : 5658007A
->Accurately ripped (v1, confidence 2/2)
Statistics
Read error : 0
Skipped (treated as error) : 0
Edge jitter error (maybe fixed) : 0
Atom jitter error (maybe fixed) : 0
Drift error (maybe fixed) : 0
Dropped bytes error (maybe fixed) : 0
Duplicated bytes error (maybe fixed) : 0
Inconsistency in error sectors : 0
Track 08
Filename : /XLD/08 Eddie Jefferson - Thank You - Falletinme Be Mice Elf Agin.flac
Pre-gap length : 00:01:65
Track gain : 0.71 dB
Peak : 0.984344
CRC32 hash (test run) : 256846FF
CRC32 hash : 256846FF
CRC32 hash (skip zero) : 8DCFFCAA
AccurateRip v1 signature : 3F6BC350
AccurateRip v2 signature : A80BD486
->Accurately ripped (v1, confidence 2/2)
Statistics
Read error : 0
Skipped (treated as error) : 0
Edge jitter error (maybe fixed) : 0
Atom jitter error (maybe fixed) : 0
Drift error (maybe fixed) : 0
Dropped bytes error (maybe fixed) : 0
Duplicated bytes error (maybe fixed) : 0
Inconsistency in error sectors : 0
No errors occurred
End of status report
 
Содержание индексной карты (.CUE)
TITLE "Things Are Getting Better"
PERFORMER "Eddie Jefferson"
REM GENRE "Jazz"
REM DATE "1974"
REM DISCID 6508CE08
REM REPLAYGAIN_ALBUM_GAIN -0.17 dB
REM REPLAYGAIN_ALBUM_PEAK 0.984344
FILE "01 - Bitches Brew.flac" WAVE
TRACK 01 AUDIO
TITLE "Bitches Brew"
REM REPLAYGAIN_TRACK_GAIN 0.10 dB
REM REPLAYGAIN_TRACK_PEAK 0.826141
INDEX 01 00:00:00
TRACK 02 AUDIO
TITLE "Things Are Getting Better"
REM REPLAYGAIN_TRACK_GAIN -1.10 dB
REM REPLAYGAIN_TRACK_PEAK 0.718567
INDEX 00 08:48:70
FILE "02 - Things Are Getting Better.flac" WAVE
INDEX 01 00:00:00
TRACK 03 AUDIO
TITLE "Freedom Jazz Dance"
REM REPLAYGAIN_TRACK_GAIN -1.28 dB
REM REPLAYGAIN_TRACK_PEAK 0.935059
INDEX 00 03:25:47
FILE "03 - Freedom Jazz Dance.flac" WAVE
INDEX 01 00:00:00
TRACK 04 AUDIO
TITLE "Night in Tunisia"
REM REPLAYGAIN_TRACK_GAIN -0.09 dB
REM REPLAYGAIN_TRACK_PEAK 0.769653
INDEX 00 04:00:70
FILE "04 - Night in Tunisia.flac" WAVE
INDEX 01 00:00:00
TRACK 05 AUDIO
TITLE "Trane's Blues"
REM REPLAYGAIN_TRACK_GAIN 0.80 dB
REM REPLAYGAIN_TRACK_PEAK 0.868439
INDEX 00 03:15:08
FILE "05 - Trane's Blues.flac" WAVE
INDEX 01 00:00:00
TRACK 06 AUDIO
TITLE "I Just Got Back in Town"
REM REPLAYGAIN_TRACK_GAIN -0.41 dB
REM REPLAYGAIN_TRACK_PEAK 0.819244
INDEX 00 04:49:10
FILE "06 - I Just Got Back in Town.flac" WAVE
INDEX 01 00:00:00
TRACK 07 AUDIO
TITLE "Billie's Bounce"
REM REPLAYGAIN_TRACK_GAIN 0.03 dB
REM REPLAYGAIN_TRACK_PEAK 0.724701
INDEX 00 04:31:17
FILE "07 - Billie's Bounce.flac" WAVE
INDEX 01 00:00:00
TRACK 08 AUDIO
TITLE "Thank You - Falletinme Be Mice Elf Agin"
REM REPLAYGAIN_TRACK_GAIN 0.71 dB
REM REPLAYGAIN_TRACK_PEAK 0.984344
INDEX 00 04:07:05
FILE "08 - Thank You - Falletinme Be Mice Elf Agin.flac" WAVE
INDEX 01 00:00:00
 
Отчет CUETools
[CUETools log; Date: 14.09.2013 20:38:48; Version: 2.1.4]
[CTDB TOCID: JmdLlGV0AciTlQzIqCdWgnS6dcE-] found.
Track | CTDB Status
1 | (1/1) Accurately ripped
2 | (1/1) Accurately ripped
3 | (1/1) Accurately ripped
4 | (1/1) Accurately ripped
5 | (1/1) Accurately ripped
6 | (1/1) Accurately ripped
7 | (1/1) Accurately ripped
8 | (1/1) Accurately ripped
[AccurateRip ID: 000c7f27-0050b9f5-6508ce08] found.
Track [ CRC | V2 ] Status
01 [35d18c25|daadc836] (2+0/2) Accurately ripped
02 [fe1bf04e|f1a0d8c6] (2+0/2) Accurately ripped
03 [ce804b22|93a206e7] (2+0/2) Accurately ripped
04 [411c4762|e2dc4a02] (2+0/2) Accurately ripped
05 [cffdb310|daaade96] (2+0/2) Accurately ripped
06 [25166ce9|eb5cb13c] (2+0/2) Accurately ripped
07 [bfeac5e5|5658007a] (2+0/2) Accurately ripped
08 [3f6bc350|a80bd486] (2+0/2) Accurately ripped
Track Peak [ CRC32 ] [W/O NULL]
-- 98,4 [A6EAC9AA] [F162016F]
01 82,6 [8D30183A] [44C909CB]
02 71,8 [B9E210DE] [26EB192D]
03 93,5 [1D474F82] [CF41C28D]
04 76,9 [0D679952] [126A03CE]
05 86,8 [9CFEAB80] [742E9385]
06 81,9 [92B2A486] [765A88B8]
07 72,4 [A77BA16F] [2F1A563E]
08 98,4 [256846FF] [8DCFFCAA]
 
Review by Scott Yanow
Singer Eddie Jefferson's first album in five years finds him doing his best to keep up with the times. Somehow he manages to sing Miles Davis' "Bitches Brew" (a nearly impossible melody to make much out of) and he also performs "Freedom Jazz Dance" and "Trane's Blues" in addition to more boppish material (including an exuberant "Things Are Getting Better," "Night In Tunisia" and "Billie's Bounce"). The Sly Stone tune "Thank You" is the only trivial selection among the eight reissued on this CD while "I Just Got Back In Town" is based on James Moody's improvisation to the ballad "I Cover The Waterfront." The master of vocalese (who was at the peak of his powers during this period) is assisted by trumpeter Joe Newman, Billy Mitchell (on tenor, flute and bass clarinet), keyboardist Mickey Tucker, bassist Sam Jones and drummer Eddie Gladden. A worthy effort.
Приватный:
Нет (DHT включён)
Размер:
214.76 Мб (225,188,123 байт) » файлов: 13
Участники:
0 раздают, 0 качают (0 участников всего)
Внешние участники:
5 раздают, 1 качают (6 участников всего) [ Обновить ]
Есть вопросы - пишите личное сообщение пользователю M0p94ok.
11:00
32
Нет комментариев. Ваш будет первым!