Поиск

(Vocal Jazz, African, Bossa Nova) [CD] Miriam Aida & Afro Samba Orchestra - E de Lei! - 2014, FLAC (tracks+.cue), lossless

(Vocal Jazz, African, Bossa Nova) [CD] Miriam Aida & Afro Samba Orchestra - E de Lei! - 2014, FLAC (tracks+.cue), lossless
Битрейт аудио:
lossless
Треклист:
Miriam Aida & Afro Samba Orchestra - E de Lei!
Жанр: Vocal Jazz, African, Bossa Nova
Носитель: CD
Страна-производитель диска (релиза): Германия
Год издания: 2014
Издатель (лейбл): Connective Records
Номер по каталогу: CTV36532
Аудиокодек: FLAC (*.flac)
Тип рипа: tracks+.cue
Битрейт аудио: lossless
Продолжительность: 00:45:01
Источник: Entrimo
Наличие сканов в содержимом раздачи: нет
Треклист:
01. Berimbau (3:34)
02. Canto de Xango (4:57)
03. Formosa (2:30)
04. Samba em Preludio (5:54)
05. Canto de Ossanha (4:30)
06. Canto de Iemanja (6:49)
07. Tempo de Amor (3:50)
08. E de Lei (3:13)
09. Medo de Amar (5:17)
10. Samba do Perdao (4:27)
 
Лог создания рипа
Exact Audio Copy V1.3 from 2. September 2016
EAC extraction logfile from 10. March 2019, 19:21
Miriam Aïda / É De Lei!
Used drive : TSSTcorpCDDVDW SH-222AB Adapter: 1 ID: 0
Read mode : Secure
Utilize accurate stream : Yes
Defeat audio cache : Yes
Make use of C2 pointers : No
Read offset correction : 6
Overread into Lead-In and Lead-Out : No
Fill up missing offset samples with silence : Yes
Delete leading and trailing silent blocks : No
Null samples used in CRC calculations : Yes
Used interface : Native Win32 interface for Win NT & 2000
Gap handling : Appended to previous track
Used output format : User Defined Encoder
Selected bitrate : 1024 kBit/s
Quality : High
Add ID3 tag : No
Command line compressor : C:\Program Files (x86)\Exact Audio Copy\Flac\flac.exe
Additional command line options : -8 -V -T "ARTIST=%artist%" -T "TITLE=%title%" -T "ALBUM=%albumtitle%" -T "DATE=%year%" -T "TRACKNUMBER=%tracknr%" -T "GENRE=%genre%" -T "PERFORMER=%albuminterpret%" -T "COMPOSER=%composer%" %haslyrics%--tag-from-file=LYRICS="%lyricsfile%"%haslyrics% -T "ALBUMARTIST=%albumartist%" -T "DISCNUMBER=%cdnumber%" -T "TOTALDISCS=%totalcds%" -T "TOTALTRACKS=%numtracks%" -T "COMMENT=%comment%" %source% -o %dest%
TOC of the extracted CD
Track | Start | Length | Start sector | End sector
---------------------------------------------------------
1 | 0:00.00 | 3:34.12 | 0 | 16061
2 | 3:34.12 | 4:56.54 | 16062 | 38315
3 | 8:30.66 | 2:30.02 | 38316 | 49567
4 | 11:00.68 | 5:54.01 | 49568 | 76118
5 | 16:54.69 | 4:30.20 | 76119 | 96388
6 | 21:25.14 | 6:49.18 | 96389 | 127081
7 | 28:14.32 | 3:50.21 | 127082 | 144352
8 | 32:04.53 | 3:13.15 | 144353 | 158842
9 | 35:17.68 | 5:16.54 | 158843 | 182596
10 | 40:34.47 | 4:26.53 | 182597 | 202599
Track 1
Filename D:\EACRips\Miriam Aïda ‎– É De Lei! (2014) {CTV36532} FLAC\01 - Berimbau.wav
Pre-gap length 0:00:02.00
Peak level 97.6 %
Extraction speed 4.4 X
Track quality 100.0 %
Test CRC B909DAD4
Copy CRC B909DAD4
Accurately ripped (confidence 1) [19267354] (AR v2)
Copy OK
Track 2
Filename D:\EACRips\Miriam Aïda ‎– É De Lei! (2014) {CTV36532} FLAC\02 - Canto De Xango.wav
Pre-gap length 0:00:00.85
Peak level 96.8 %
Extraction speed 5.2 X
Track quality 100.0 %
Test CRC 56B94AD9
Copy CRC 56B94AD9
Accurately ripped (confidence 1) [29646306] (AR v2)
Copy OK
Track 3
Filename D:\EACRips\Miriam Aïda ‎– É De Lei! (2014) {CTV36532} FLAC\03 - Formosa.wav
Pre-gap length 0:00:00.76
Peak level 97.2 %
Extraction speed 3.7 X
Track quality 99.9 %
Test CRC 47113748
Copy CRC 47113748
Accurately ripped (confidence 1) [493E2AE1] (AR v2)
Copy OK
Track 4
Filename D:\EACRips\Miriam Aïda ‎– É De Lei! (2014) {CTV36532} FLAC\04 - Same Em Preludio.wav
Pre-gap length 0:00:00.98
Peak level 97.5 %
Extraction speed 6.1 X
Track quality 100.0 %
Test CRC 3310E935
Copy CRC 3310E935
Accurately ripped (confidence 1) [B8D1EF78] (AR v2)
Copy OK
Track 5
Filename D:\EACRips\Miriam Aïda ‎– É De Lei! (2014) {CTV36532} FLAC\05 - Canto De Ossanha.wav
Peak level 96.7 %
Extraction speed 5.2 X
Track quality 99.9 %
Test CRC 47E942FD
Copy CRC 47E942FD
Accurately ripped (confidence 1) [B71A6910] (AR v2)
Copy OK
Track 6
Filename D:\EACRips\Miriam Aïda ‎– É De Lei! (2014) {CTV36532} FLAC\06 - Canto De Lemanja.wav
Pre-gap length 0:00:00.90
Peak level 97.7 %
Extraction speed 7.1 X
Track quality 100.0 %
Test CRC D0F8AFB6
Copy CRC D0F8AFB6
Accurately ripped (confidence 1) [4487C9E7] (AR v2)
Copy OK
Track 7
Filename D:\EACRips\Miriam Aïda ‎– É De Lei! (2014) {CTV36532} FLAC\07 - Tempo De Amor.wav
Pre-gap length 0:00:00.73
Peak level 96.8 %
Extraction speed 7.1 X
Track quality 100.0 %
Test CRC A31FFC80
Copy CRC A31FFC80
Accurately ripped (confidence 1) [4CB8687A] (AR v2)
Copy OK
Track 8
Filename D:\EACRips\Miriam Aïda ‎– É De Lei! (2014) {CTV36532} FLAC\08 - En De Lei.wav
Peak level 97.1 %
Extraction speed 5.4 X
Track quality 99.9 %
Test CRC 0C8499F0
Copy CRC 0C8499F0
Accurately ripped (confidence 1) [B5AAB85C] (AR v2)
Copy OK
Track 9
Filename D:\EACRips\Miriam Aïda ‎– É De Lei! (2014) {CTV36532} FLAC\09 - Medo De Amar.wav
Pre-gap length 0:00:01.65
Peak level 96.9 %
Extraction speed 6.6 X
Track quality 99.9 %
Test CRC 166D7716
Copy CRC 166D7716
Accurately ripped (confidence 1) [149082B5] (AR v2)
Copy OK
Track 10
Filename D:\EACRips\Miriam Aïda ‎– É De Lei! (2014) {CTV36532} FLAC\10 - Samba De Perdao.wav
Pre-gap length 0:00:01.01
Peak level 97.9 %
Extraction speed 8.0 X
Track quality 100.0 %
Test CRC A5341D9C
Copy CRC A5341D9C
Accurately ripped (confidence 1) [6BC3F123] (AR v2)
Copy OK
All tracks accurately ripped
No errors occurred
End of status report
---- CUETools DB Plugin V2.1.6
[CTDB TOCID: XFnPueU.tGRGqTC1pWAXYH2PzD0-] found
Submit result: XFnPueU.tGRGqTC1pWAXYH2PzD0- has been confirmed
Track | CTDB Status
1 | (2/2) Accurately ripped
2 | (2/2) Accurately ripped
3 | (2/2) Accurately ripped
4 | (2/2) Accurately ripped
5 | (2/2) Accurately ripped
6 | (2/2) Accurately ripped
7 | (2/2) Accurately ripped
8 | (2/2) Accurately ripped
9 | (2/2) Accurately ripped
10 | (2/2) Accurately ripped
==== Log checksum BD7ED909343199BA6201AAB6F8ACC43C5ADF7459684E13D78481FF7B8A020AA1 ====
 
Содержание индексной карты (.CUE)
REM GENRE Jazz
REM DATE 2014
REM DISCID 7F0A8D0A
REM COMMENT "ExactAudioCopy v1.3"
PERFORMER "Miriam Aida"
TITLE "E de Lei!"
FILE "01 - Berimbau.wav" WAVE
TRACK 01 AUDIO
TITLE "Berimbau"
PERFORMER "Miriam Aida"
INDEX 01 00:00:00
TRACK 02 AUDIO
TITLE "Canto de Xango"
PERFORMER "Miriam Aida"
INDEX 00 03:33:23
FILE "02 - Canto de Xango.wav" WAVE
INDEX 01 00:00:00
TRACK 03 AUDIO
TITLE "Formosa"
PERFORMER "Miriam Aida"
INDEX 00 04:55:72
FILE "03 - Formosa.wav" WAVE
INDEX 01 00:00:00
TRACK 04 AUDIO
TITLE "Samba em Preludio"
PERFORMER "Miriam Aida"
INDEX 00 02:29:03
FILE "04 - Samba em Preludio.wav" WAVE
INDEX 01 00:00:00
FILE "05 - Canto de Ossanha.wav" WAVE
TRACK 05 AUDIO
TITLE "Canto de Ossanha"
PERFORMER "Miriam Aida"
INDEX 01 00:00:00
TRACK 06 AUDIO
TITLE "Canto de Iemanja"
PERFORMER "Miriam Aida"
INDEX 00 04:29:27
FILE "06 - Canto de Iemanja.wav" WAVE
INDEX 01 00:00:00
TRACK 07 AUDIO
TITLE "Tempo de Amor"
PERFORMER "Miriam Aida"
INDEX 00 06:48:38
FILE "07 - Tempo de Amor.wav" WAVE
INDEX 01 00:00:00
FILE "08 - E de Lei.wav" WAVE
TRACK 08 AUDIO
TITLE "E de Lei"
PERFORMER "Miriam Aida"
INDEX 01 00:00:00
TRACK 09 AUDIO
TITLE "Medo de Amar"
PERFORMER "Miriam Aida"
INDEX 00 03:11:41
FILE "09 - Medo de Amar.wav" WAVE
INDEX 01 00:00:00
TRACK 10 AUDIO
TITLE "Samba do Perdao"
PERFORMER "Miriam Aida"
INDEX 00 05:15:53
FILE "10 - Samba do Perdao.wav" WAVE
INDEX 01 00:00:00
 
Отчет CUETools
[CUETools log; Date: 11.03.2019 2:35:33; Version: 2.1.6]
[CTDB TOCID: XFnPueU.tGRGqTC1pWAXYH2PzD0-] found.
Track | CTDB Status
1 | (3/3) Accurately ripped
2 | (3/3) Accurately ripped
3 | (3/3) Accurately ripped
4 | (3/3) Accurately ripped
5 | (3/3) Accurately ripped
6 | (3/3) Accurately ripped
7 | (3/3) Accurately ripped
8 | (3/3) Accurately ripped
9 | (3/3) Accurately ripped
10 | (3/3) Accurately ripped
[AccurateRip ID: 0010a959-0086c73d-7f0a8d0a] found.
Track [ CRC | V2 ] Status
01 [73bd3491|19267354] (0+1/1) Accurately ripped
02 [4e1dfa92|29646306] (0+1/1) Accurately ripped
03 [76d74d0a|493e2ae1] (0+1/1) Accurately ripped
04 [601cf5cc|b8d1ef78] (0+1/1) Accurately ripped
05 [3efbdae9|b71a6910] (0+1/1) Accurately ripped
06 [c7ae3efa|4487c9e7] (0+1/1) Accurately ripped
07 [5fcf3132|4cb8687a] (0+1/1) Accurately ripped
08 [25f64867|b5aab85c] (0+1/1) Accurately ripped
09 [7359cac5|149082b5] (0+1/1) Accurately ripped
10 [05c73540|6bc3f123] (0+1/1) Accurately ripped
Track Peak [ CRC32 ] [W/O NULL] [ LOG ]
-- 97,9 [517974C0] [7FBF1E98]
01 97,6 [B909DAD4] [24F7454C] CRC32
02 96,8 [56B94AD9] [844C2AA3] CRC32
03 97,2 [47113748] [FC559E47] CRC32
04 97,5 [3310E935] [82324034] CRC32
05 96,7 [47E942FD] [B66B9436] CRC32
06 97,7 [D0F8AFB6] [1B644FC2] CRC32
07 96,8 [A31FFC80] [23191B6F] CRC32
08 97,1 [0C8499F0] [771A7B0C] CRC32
09 96,9 [166D7716] [CA656E7F] CRC32
10 97,9 [A5341D9C] [9CC674C9] CRC32
 
Об альбоме (сборнике)
Miriam Aïda Afro Samba Orchestra ́s new album “É de Lei!” contains intimacy, melancholy, boiling energy, happiness, mystery and a journey deep into the heart of the afro-brazilian music.
On this album Miriam Aïda is joined by the Vindla string quartet, two woodwinds, 7-string acoustic guitar and two percussionists to play the music of brazilian legend and founder of Afro Samba, Baden Powell (1937-2000).
Through an international collaboration with the brazilian arranger Jayme Vignoli, the arrangements have been tailor-made for this ensemble. Jayme Vignoli is one of the most sought-after arrangers in his native Rio De Janeiro and on ”É de Lei!” you hear his masterful writing which are complex, multi-dimensional, colorful and expressive. Jayme Vignoli is not only a briliant arranger but also a great musician and he plays cavaquinho on 3 tracks.
The album features one of Rios greatest singers , Marcos Sacramento, who joins Miriam in a beautiful duet on ”Samba em Prelúdio”, recorded in Santa Teresa, Rio.
 
Состав
Miriam Aida, Marcos Sacramento (#4) - vocals
Mats Andersson - 7-string acoustic guitar
Inge Petersson-Lindback - clarinet, bass clarinet
Rui Alvim - clarinet (#9)
Ulf Holmstrom - flute
Maria Souto - alto flute (#9)
Caroline Karpinska, Maria Bergstrom - violin
Elina Nygren - viola
Gerda Holmquist - cello
Jayme Vignoli - cavaquinho
Ola Bothzen - congas, tan-tan, cajon, surdo, tamborim, caixa de mesa, ganza, triangle, cymbal, pandeiro, agogo, vibraslap, shells, bells
Finn Bjornulfsson - pandeiro, repique de mao, reco-reco, tamborim, caixa, caixa de mesa, cuica, berimbau, caxixi, ganza, caixa de fosfores, tamborim de xicara, vibratone, shells, bells
Adriano Siqueira, Rafael Kaiowa - background vocals
Recorded at The End Studios, Lund.
Приватный:
Нет (DHT включён)
Размер:
272.72 Мб (285,967,789 байт) » файлов: 16
Участники:
0 раздают, 0 качают (0 участников всего)
Внешние участники:
--- [ Обновить ]
12:48
15
Нет комментариев. Ваш будет первым!