Поиск

(Vocal Jazz) Abbey Lincoln & Hank Jones — When There Is Love (1992) — 1993, FLAC (image+.cue) lossless

(Vocal Jazz) Abbey Lincoln & Hank Jones — When There Is Love (1992) — 1993, FLAC (image+.cue) lossless
Треклист:
Abbey Lincoln & Hank Jones — When There Is Love (1992)
Жанр: Vocal Jazz
Год издания диска: 1993
Лейбл: Gitanes
Номер по каталогу: 314 519 697-2
Аудио кодек: FLAC (*.flac)
Тип рипа: image+.cue
Битрейт аудио: lossless
Продолжительность: 63:58
Риппер: asdfgh9989
Сканы есть
Треклист:
01. A Part Of Me / There Are Such Things (4:36)
02. When There Is Love (4:44)
03. Black Butterfly (3:28)
04. Angel Face (5:38)
05. The Nearness Of You (5:40)
06. Can't Help Singing (2:32)
07. Close Your Eyes (3:08)
08. I Should Care (5:46)
09. You Came A Long Way From St. Louis (3:57)
10. C'est Si Bon (5:44)
11. The Jitterbug Waltz (3:16)
12. Time After Time (4:34)
13. You Won't Forget Me (5:15)
14. First Came Woman (5:41)
Personnel:
Abbey Lincoln - vo
Hank Jones - p
Rec.: Studios Davout, Paris, France, October 4-6, 1992.
  
 
Лог создания рипа
EAC extraction logfile from 9. December 2006, 14:54 for CD
Abbey Lincoln & Hank Jones / When There Is Love
Used drive : PLEXTOR DVDR PX-716A Adapter: 4 ID: 0
Read mode : Secure with NO C2, accurate stream, disable cache
Read offset correction : 30
Overread into Lead-In and Lead-Out : Yes
Used output format : Internal WAV Routines
44.100 Hz; 16 Bit; Stereo
Other options :
Fill up missing offset samples with silence : Yes
Delete leading and trailing silent blocks : No
Installed external ASPI interface
Range status and errors
Selected range
Filename D:\hqshare.net\When There Is Love.wav
Peak level 97.9 %
Range quality 100.0 %
CRC 55A0BB9A
Copy OK
No errors occured
End of status report
 
Содержание индексной карты (.CUE)
REM GENRE Jazz
REM DATE 1992
PERFORMER "Abbey Lincoln & Hank Jones"
TITLE "When There Is Love"
FILE "Abbey Lincoln - When There Is Love.flac" WAVE
TRACK 01 AUDIO
TITLE "A Part Of Me / There Are Such Things"
PERFORMER "Abbey Lincoln & Hank Jones"
INDEX 00 00:00:00
INDEX 01 00:00:32
TRACK 02 AUDIO
TITLE "When There Is Love"
PERFORMER "Abbey Lincoln & Hank Jones"
INDEX 00 04:35:05
INDEX 01 04:36:37
TRACK 03 AUDIO
TITLE "Black Butterfly"
PERFORMER "Abbey Lincoln & Hank Jones"
INDEX 00 09:19:25
INDEX 01 09:20:27
TRACK 04 AUDIO
TITLE "Angel Face"
PERFORMER "Abbey Lincoln & Hank Jones"
INDEX 00 12:46:22
INDEX 01 12:47:72
TRACK 05 AUDIO
TITLE "The Nearness Of You"
PERFORMER "Abbey Lincoln & Hank Jones"
INDEX 00 18:24:07
INDEX 01 18:25:45
TRACK 06 AUDIO
TITLE "Can't Help Singing"
PERFORMER "Abbey Lincoln & Hank Jones"
INDEX 00 24:03:47
INDEX 01 24:05:22
TRACK 07 AUDIO
TITLE "Close Your Eyes"
PERFORMER "Abbey Lincoln & Hank Jones"
INDEX 00 26:36:30
INDEX 01 26:37:40
TRACK 08 AUDIO
TITLE "I Should Care"
PERFORMER "Abbey Lincoln & Hank Jones"
INDEX 00 29:43:62
INDEX 01 29:45:37
TRACK 09 AUDIO
TITLE "You Came A Long Way From St. Louis"
PERFORMER "Abbey Lincoln & Hank Jones"
INDEX 00 35:30:07
INDEX 01 35:31:27
TRACK 10 AUDIO
TITLE "C'est Si Bon"
PERFORMER "Abbey Lincoln & Hank Jones"
INDEX 00 39:26:30
INDEX 01 39:28:10
TRACK 11 AUDIO
TITLE "The Jitterbug Waltz"
PERFORMER "Abbey Lincoln & Hank Jones"
INDEX 00 45:11:17
INDEX 01 45:12:22
TRACK 12 AUDIO
TITLE "Time After Time"
PERFORMER "Abbey Lincoln & Hank Jones"
INDEX 00 48:27:65
INDEX 01 48:28:47
TRACK 13 AUDIO
TITLE "You Won't Forget Me"
PERFORMER "Abbey Lincoln & Hank Jones"
INDEX 00 53:01:50
INDEX 01 53:03:05
TRACK 14 AUDIO
TITLE "First Came Woman"
PERFORMER "Abbey Lincoln & Hank Jones"
INDEX 00 58:14:70
INDEX 01 58:17:50
По всем вопросам пишите личное сообщение пользователю M0p94ok.
20:43
518
Нет комментариев. Ваш будет первым!