Поиск

(Vocal Jazz) Abbey Lincoln - Abbey Is Blue (1959) - 1987, FLAC (tracks+.cue), lossless

Треклист:
Abbey Lincoln – Abbey Is Blue (1959)
Жанр: Vocal Jazz
Год издания: 1987
Издатель (лейбл): OJC/Riverside
Bar code: 00025218606929
Аудиокодек: FLAC (*.flac)
Тип рипа: tracks+.cue
Битрейт аудио: lossless
Продолжительность: 39:17
Источник: релиз приехал на осле
Наличие сканов в содержимом раздачи: да
Треклист:
01. Afro-Blue (3:19)
02. Lonely House (3:40)
03. Let Up (5:30)
04. Thursday's Child (3:31)
05. Brother, Where Are You (3:10)
06. Laugh, Clown, Laugh (5:24)
07. Come Sunday (5:13)
08. Softly, As In A Morning Sunrise (2:46)
09. Lost In The Stars (4:10)
10. Long As You're Living (2:33)
Personnel:
Abbey Lincoln - vo
Kenny Dorham, Tommy Turrentine - tp
Julian Priester - tb
Stanley Turrentine - ts
Les Spann - fl, g
Wynton Kelly, Cedar Walton, Phil Wright - p
Bobby Boswell, Sam Jones - b
Philly Joe Jones, Max Roach - d
 
Rec.: New York, Spring and Fall, 1959.
 
 
Лог создания рипа
EAC extraction logfile from 23. August 2007, 18:52 for CD
Unknown Artist / Unknown Title
Used drive : HL-DT-STDVDRAM GSA-4160B Adapter: 1 ID: 1
Read mode : Secure with NO C2, accurate stream, disable cache
Read offset correction : 667
Overread into Lead-In and Lead-Out : No
Used output format : Internal WAV Routines
44.100 Hz; 16 Bit; Stereo
Other options :
Fill up missing offset samples with silence : Yes
Delete leading and trailing silent blocks : No
Native Win32 interface for Win NT & 2000
Track 1
Filename C:\Documents and Settings\usuario\Mis documentos\Mi mъsica\Abbey Lincoln - Abbey is blue\Track01.wav
Pre-gap length 0:00:02.00
Peak level 70.1 %
Track quality 100.0 %
Test CRC 2D3A9C22
Copy CRC 2D3A9C22
Copy OK
Track 2
Filename C:\Documents and Settings\usuario\Mis documentos\Mi mъsica\Abbey Lincoln - Abbey is blue\Track02.wav
Pre-gap length 0:00:02.62
Peak level 54.6 %
Track quality 100.0 %
Test CRC F3471D51
Copy CRC F3471D51
Copy OK
Track 3
Filename C:\Documents and Settings\usuario\Mis documentos\Mi mъsica\Abbey Lincoln - Abbey is blue\Track03.wav
Pre-gap length 0:00:01.30
Peak level 62.0 %
Track quality 100.0 %
Test CRC 5A37D17F
Copy CRC 5A37D17F
Copy OK
Track 4
Filename C:\Documents and Settings\usuario\Mis documentos\Mi mъsica\Abbey Lincoln - Abbey is blue\Track04.wav
Pre-gap length 0:00:02.02
Peak level 49.8 %
Track quality 100.0 %
Test CRC A85FA2E0
Copy CRC A85FA2E0
Copy OK
Track 5
Filename C:\Documents and Settings\usuario\Mis documentos\Mi mъsica\Abbey Lincoln - Abbey is blue\Track05.wav
Pre-gap length 0:00:02.02
Peak level 65.9 %
Track quality 100.0 %
Test CRC 56567327
Copy CRC 56567327
Copy OK
Track 6
Filename C:\Documents and Settings\usuario\Mis documentos\Mi mъsica\Abbey Lincoln - Abbey is blue\Track06.wav
Pre-gap length 0:00:02.47
Peak level 69.6 %
Track quality 99.9 %
Test CRC D2565053
Copy CRC D2565053
Copy OK
Track 7
Filename C:\Documents and Settings\usuario\Mis documentos\Mi mъsica\Abbey Lincoln - Abbey is blue\Track07.wav
Pre-gap length 0:00:03.20
Peak level 60.8 %
Track quality 100.0 %
Test CRC 84BD6D74
Copy CRC 84BD6D74
Copy OK
Track 8
Filename C:\Documents and Settings\usuario\Mis documentos\Mi mъsica\Abbey Lincoln - Abbey is blue\Track08.wav
Pre-gap length 0:00:02.30
Peak level 63.0 %
Track quality 100.0 %
Test CRC C8013892
Copy CRC C8013892
Copy OK
Track 9
Filename C:\Documents and Settings\usuario\Mis documentos\Mi mъsica\Abbey Lincoln - Abbey is blue\Track09.wav
Pre-gap length 0:00:03.68
Peak level 67.6 %
Track quality 100.0 %
Test CRC 329B64E0
Copy CRC 329B64E0
Copy OK
Track 10
Filename C:\Documents and Settings\usuario\Mis documentos\Mi mъsica\Abbey Lincoln - Abbey is blue\Track10.wav
Pre-gap length 0:00:02.10
Peak level 66.1 %
Track quality 100.0 %
Test CRC D7A64BD5
Copy CRC D7A64BD5
Copy OK
No errors occured
End of status report
 
Содержание индексной карты (.CUE)
REM DATE 1959
REM GENRE Jazz
REM DISCID 7A09350A
REM COMMENT "ExactAudioCopy v0.95b4"
PERFORMER "Abbey Lincoln"
TITLE "Abbey Is Blue"
FILE "01. Afro-Blue.flac" WAVE
TRACK 01 AUDIO
TITLE "Afro-Blue"
PERFORMER "Abbey Lincoln"
INDEX 01 00:00:00
TRACK 02 AUDIO
TITLE "Lonely House"
PERFORMER "Abbey Lincoln"
INDEX 00 03:16:45
FILE "02. Lonely House.flac" WAVE
INDEX 01 00:00:00
TRACK 03 AUDIO
TITLE "Let Up"
PERFORMER "Abbey Lincoln"
INDEX 00 03:38:35
FILE "03. Let Up.flac" WAVE
INDEX 01 00:00:00
TRACK 04 AUDIO
TITLE "Thursday's Child"
PERFORMER "Abbey Lincoln"
INDEX 00 05:27:68
FILE "04. Thursday's Child.flac" WAVE
INDEX 01 00:00:00
TRACK 05 AUDIO
TITLE "Brother, Where Are You"
PERFORMER "Abbey Lincoln"
INDEX 00 03:28:63
FILE "05. Brother, Where Are You.flac" WAVE
INDEX 01 00:00:00
TRACK 06 AUDIO
TITLE "Laugh, Clown, Laugh"
PERFORMER "Abbey Lincoln"
INDEX 00 03:07:08
FILE "06. Laugh, Clown, Laugh.flac" WAVE
INDEX 01 00:00:00
TRACK 07 AUDIO
TITLE "Come Sunday"
PERFORMER "Abbey Lincoln"
INDEX 00 05:21:10
FILE "07. Come Sunday.flac" WAVE
INDEX 01 00:00:00
TRACK 08 AUDIO
TITLE "Softly, As In A Morning Sunrise"
PERFORMER "Abbey Lincoln"
INDEX 00 05:10:43
FILE "08. Softly, As In A Morning Sunrise.flac" WAVE
INDEX 01 00:00:00
TRACK 09 AUDIO
TITLE "Lost In The Stars"
PERFORMER "Abbey Lincoln"
INDEX 00 02:42:17
FILE "09. Lost In The Stars.flac" WAVE
INDEX 01 00:00:00
TRACK 10 AUDIO
TITLE "Long As You're Living"
PERFORMER "Abbey Lincoln"
INDEX 00 04:08:22
FILE "10. Long As You're Living.flac" WAVE
INDEX 01 00:00:00
 
AccurateRip
[CUETools log; Date: 15.04.2012 9:26:28; Version: 2.0.9]
[CTDB TOCID: zMAkjCr3xNxRKfZkU5fD0B9qmkA-] found.
[ CTDBID ] Status
[be893a49] (7/7) Accurately ripped
[AccurateRip ID: 000f2ade-0079e5f5-7a09350a] found.
Track [ CRC ] Status
01 [072cff5d] (05/13) Accurately ripped
02 [c5d72d8e] (05/14) Accurately ripped
03 [9437cfa4] (05/14) Accurately ripped
04 [7f7e8f48] (05/14) Accurately ripped
05 [fc2f21b5] (05/14) Accurately ripped
06 [8ad3b955] (05/14) Accurately ripped
07 [a9ea173b] (05/14) Accurately ripped
08 [5ea35b0d] (05/14) Accurately ripped
09 [93d87bfe] (05/14) Accurately ripped
10 [7589941d] (05/14) Accurately ripped
Offsetted by -71:
01 [8e380332] (03/13) Accurately ripped
02 [c0d9d6c8] (03/14) Accurately ripped
03 [ec0be4b0] (03/14) Accurately ripped
04 [a1867385] (03/14) Accurately ripped
05 [fab89e7c] (03/14) Accurately ripped
06 [ae533e4a] (03/14) Accurately ripped
07 [ba640f17] (03/14) Accurately ripped
08 [dfa4c209] (03/14) Accurately ripped
09 [27e3f941] (03/14) Accurately ripped
10 [96f834e4] (03/14) Accurately ripped
Track Peak [ CRC32 ] [W/O NULL] [ LOG ]
-- 70,1 [A24A38F8] [67BEC04B]
01 70,1 [748CB900] [2D3A9C22] W/O NULL
02 54,6 [A25A0813] [F3471D51] W/O NULL
03 62,0 [EA4A600C] [5A37D17F] W/O NULL
04 49,8 [C93BC9DC] [A85FA2E0] W/O NULL
05 65,9 [9C2B6878] [56567327] W/O NULL
06 69,6 [2E32C8CA] [D2565053] W/O NULL
07 60,8 [AEBB4908] [84BD6D74] W/O NULL
08 63,0 [B6BF466E] [C8013892] W/O NULL
09 67,6 [84ACEA05] [329B64E0] W/O NULL
10 66,1 [90B820EA] [D7A64BD5] W/O NULL
По всем вопросам пишите личное сообщение пользователю M0p94ok.
02:45
479
Нет комментариев. Ваш будет первым!