Поиск

(Vintage, swing, vocal) Caro Emerald with the Grandmono Orchestra - Live in Concert at the Heineken Music Hall, Amsterdam - 2011, APE (image+.cue) lossless

(Vintage, swing, vocal) Caro Emerald with the Grandmono Orchestra - Live in Concert at the Heineken Music Hall, Amsterdam - 2011, APE (image+.cue) lossless
Треклист:
Caro Emerald with the Grandmono Orchestra / Live in Concert at the Heineken Music Hall, Amsterdam.
Жанр: Vintage, swing, vocal
Страна-производитель диска: Нидерланды
Год издания диска: 2011
Издатель (лейбл): Grandmono Records
Страна: Нидерланды
Аудио кодек: APE (*.ape)
Тип рипа: image+.cue
Битрейт аудио: lossless
Продолжительность: 01:13:51
Источник (релизер): Enjoydownload
Наличие сканов в содержимом раздачи: да
Треклист:
01. Intro Greg Shapiro [0:01:31.10]
02. Zoot Suit Theme [0:01:58.06]
03. Absolutely Me [0:01:40.25]
04. Just One Dance [0:04:22.01]
05. You Don't Love Me [0:04:18.68]
06. Muchos Besos [0:00:58.10]
07. Back It Up [0:04:49.37]
08. The Other Woman [0:07:48.36]
09. Close To Me [0:01:34.02]
10. Riviera Life [0:04:04.45]
11. Dr Wannado [0:03:25.53]
12. Caro's Lament [0:01:32.54]
13. I Know That He's Mine [0:04:56.00]
14. The Lipstick On His Collar [0:06:16.04]
15. Bad Romance [0:04:17.61]
16. That Man [0:03:53.17]
17. A Night Like This [0:06:53.36]
18. Two Hearts [0:03:43.15]
19. Stuck [0:05:48.38]
 
Лог создания рипа
EAC extraction logfile from 6. May 2011, 18:40 for CD
Caro Emerald with the Grandmono Orchestra / Live In Concert at the Heineken Music Hall Amsterdam
Used drive : TSSTcorpCDDVDW SH-S222L Adapter: 0 ID: 0
Read mode : Secure with NO C2, accurate stream, NO disable cache
Read offset correction : 6
Overread into Lead-In and Lead-Out : No
Used output format : C:\Program Files\Exact Audio Copy\MAC.exe (Monkey's Audio Lossless Encoder)
Fast Lossless Compression
Other options :
Fill up missing offset samples with silence : Yes
Delete leading and trailing silent blocks : No
Native Win32 interface for Win NT & 2000
Range status and errors
Selected range
Filename D:\caro emerald\cd\Caro Emerald with the Grandmono Orchestra - Live In Concert at the Heineken Music Hall Amsterdam.wav
Peak level 98.0 %
Range quality 100.0 %
CRC 7D33D7FC
Copy OK
No errors occured
End of status report
 
Содержание индексной карты (.CUE)
REM DISCID 11114F13
REM COMMENT "ExactAudioCopy v0.95b4"
PERFORMER "Caro Emerald with the Grandmono Orchestra"
TITLE "Live In Concert at the Heineken Music Hall Amsterdam"
FILE "Caro Emerald with the Grandmono Orchestra - Live In Concert at the Heineken Music Hall Amsterdam.ape" WAVE
TRACK 01 AUDIO
TITLE "Intro Greg Shapiro"
PERFORMER "Caro Emerald with the Grandmono Orchestra"
INDEX 01 00:00:00
TRACK 02 AUDIO
TITLE "Zoot Suit Theme"
PERFORMER "Caro Emerald with the Grandmono Orchestra"
INDEX 01 01:31:10
TRACK 03 AUDIO
TITLE "Absolutely Me"
PERFORMER "Caro Emerald with the Grandmono Orchestra"
INDEX 01 03:29:16
TRACK 04 AUDIO
TITLE "Just One Dance"
PERFORMER "Caro Emerald with the Grandmono Orchestra"
INDEX 01 05:09:41
TRACK 05 AUDIO
TITLE "You Don't Love Me"
PERFORMER "Caro Emerald with the Grandmono Orchestra"
INDEX 01 09:31:42
TRACK 06 AUDIO
TITLE "Muchos Besos"
PERFORMER "Caro Emerald with the Grandmono Orchestra"
INDEX 01 13:50:35
TRACK 07 AUDIO
TITLE "Back It Up"
PERFORMER "Caro Emerald with the Grandmono Orchestra"
INDEX 01 14:48:45
TRACK 08 AUDIO
TITLE "The Other Woman"
PERFORMER "Caro Emerald with the Grandmono Orchestra"
INDEX 01 19:38:07
TRACK 09 AUDIO
TITLE "Close To Me"
PERFORMER "Caro Emerald with the Grandmono Orchestra"
INDEX 01 27:26:43
TRACK 10 AUDIO
TITLE "Riviera Life"
PERFORMER "Caro Emerald with the Grandmono Orchestra"
INDEX 01 29:00:45
TRACK 11 AUDIO
TITLE "Dr Wannado"
PERFORMER "Caro Emerald with the Grandmono Orchestra"
INDEX 01 33:05:15
TRACK 12 AUDIO
TITLE "Caro's Lament"
PERFORMER "Caro Emerald with the Grandmono Orchestra"
INDEX 01 36:30:68
TRACK 13 AUDIO
TITLE "I Know That He's Mine"
PERFORMER "Caro Emerald with the Grandmono Orchestra"
INDEX 01 38:03:47
TRACK 14 AUDIO
TITLE "The Lipstick On His Collar"
PERFORMER "Caro Emerald with the Grandmono Orchestra"
INDEX 01 42:59:47
TRACK 15 AUDIO
TITLE "Bad Romance"
PERFORMER "Caro Emerald with the Grandmono Orchestra"
INDEX 01 49:15:51
TRACK 16 AUDIO
TITLE "That Man"
PERFORMER "Caro Emerald with the Grandmono Orchestra"
INDEX 01 53:33:37
TRACK 17 AUDIO
TITLE "A Night Like This"
PERFORMER "Caro Emerald with the Grandmono Orchestra"
INDEX 01 57:26:54
TRACK 18 AUDIO
TITLE "Two Hearts"
PERFORMER "Caro Emerald with the Grandmono Orchestra"
INDEX 01 64:20:15
TRACK 19 AUDIO
TITLE "Stuck"
PERFORMER "Caro Emerald with the Grandmono Orchestra"
INDEX 01 68:03:30
 
Лог проверки качества
AUDIOCHECKER v2.0 beta (build 457) - by Dester - opdester@freemail.hu
~~~~~~~~~~~~~~~~~~~~~~~~~~~~~~~~~~
Started at: понедельник, 09. 05. 2011. - 23:21.37
1 file found
1 -===- D:\Torents\Caro_Emerald_with_the_Grandmono_Orchestra-Live_in_Concert_CD-2011_[torrents.ru]\Caro Emerald with the Grandmono Orchestra - Live In Concert at the Heineken Music Hall Amsterdam.ape
Extracted successfully
Conclusion: this track is CDDA with probability 100%
Tempfile successfully deleted.
Finished at: понедельник, 09. 05. 2011. - 23:27.14 (operation time: 0:05.37)
 
Об исполнителе (группе)
Caro Emerald (Каро Эмеральд - переводится как "дорогой изумруд") – знойный вокал и ритмы танго и джаза с элементами мамбо навевают воспоминания о жизнерадостной и чувственной музыке пятидесятых и стильных черно-белых кинолентах тех лет.
Настоящее имя певицы - Каролина Эсмеральда ван дер Лёв (Caroline Esmeralda van der Leeuw), она родилась и выросла в Амстердаме и получила классическое музыкальное образование в Амстердамской консерватории. Первые опыты публичных выступлений певицы связаны с Philharmonic Funk Foundation – оркестром из сорока четырех музыкантов, исполняющим музыку в стиле фанк, а также с вокальным секстетом Les Elles...
Триумф Каро Эмеральд как сольной исполнительницы начался летом 2009 года выпуском дебютного сингла Back It Up. Эта композиция была написана Дэвидом Шреурсом (David Schreurs) и Яном ван Вирингеном (Jan van Wieringen) совместно с канадским песенником Винсом Дежоржио (Vince Degiorgio), известным своими работами с NSYNC, Atomic Kitten и Aloha from Hell. Песня предназначалась для одного японского коллектива, однако запись не состоялась, и в мае 2007 года Шреурс и Виринген предложили эту работу Каролине.
Композиция так понравилась Каро, что она включила ее в свой концертный репертуар, но целый год песня оставалась неизвестной для широкой аудитории. Популярность пришла в 2008-м после исполнения Back It Up в эфире местного амстердамского телеканала АТ5. Это было попадание «в десятку»: зрители оборвали телефоны и завалили электронную почту редакции вопросами, кто эта замечательная девушка Caro Emerald, и что за песню она исполняла. Друзья помогли Каро снять бюджетное видео и разместили его на Youtube. Успех был грандиозным, и в комментариях зрители упрашивали Caro открыть продажу композиции через iTunes.
Первый успех вдохновил Каро и ее продюсеров на создание полноценного альбома в ретро-стиле. Осенью 2008-го Шреурс улетел в Канаду, где совместно с Дежоржио записал семь композиций, определивших основное настроение и звучание всего альбома. Через несколько месяцев в Амстердаме альбом Deleted Scenes from the Cutting Room Floor, соединивший в себе классические мелодии танго и джаза пятидесятых с сочным современным битом, был завершен.
Официальный релиз сингла Back It Up состоялся 6-го июля 2009 года на студии звукозаписи Grandmono Records. Он практически сразу вошел в голландский музыкальный чарт Тор-40 и продержался там три месяца, достигнув двенадцатой позиции. По итогам года композиция была признана самой часто транслируемой на популярном амстердамском радио 3FM.
Следующий сингл Emerald, A Night Like This увидел свет 11 декабря 2009 года и буквально через пару недель добрался до верхней строчки национального хит-парада в категориях «синглы» и «радио-эфир». Очередным знаком признания и успеха для певицы и ее продюсеров стал контракт с всемирно известным брендом Martini - композиция A Night Like This стала официальным саундтреком новой рекламной кампании популярного вермута.
Альбом Caro Emerald - Deleted Scenes from the Cutting Room Floor был выпущен на лейбле Grandmono Records в конце января 2010 года и за шесть недель продаж на территории Голландии получил статус платинового, разошедшись тиражом более 50 000 копий. Впервые в истории голландских чартов дебютный альбом смог достичь первой позиции и удерживаться там непрерывно на протяжении восьми недель. В течение весенних месяцев альбом Каро Эмеральд будет выпущен во Франции, Швейцарии (Sony Music) и странах Скандинавии (Bonnier Amigo); он также доступен для скачивания через iTunes и официальный сайт певицы: www.caroemerald.com.
По материалам www.cdreview.ru

DVD, приложением к которому является этот аудиоCD, здесь:
http://rutracker.org/forum/viewtopic.php?t=3565512
По всем вопросам пишите личное сообщение пользователю M0p94ok.
11:55
382
Нет комментариев. Ваш будет первым!