Поиск

(Vanguarda paulistana, MPB, Brazilian Music) [CD] Jucara Marcal Nunes - Jucara Marcal (+ Meta Meta), Collection, 5 CD - 2008•2016, FLAC (tracks+.cue), lossless

(Vanguarda paulistana, MPB, Brazilian Music) [CD] Jucara Marcal Nunes - Jucara Marcal (+ Meta Meta), Collection, 5 CD - 2008•2016, FLAC (tracks+.cue), lossless
Треклист:
Juçara Marçal Nunes
(Born 1962, Duque de Caxias / Rio de Janeiro / Brazil)
Collection, 5 CD

Genre Brazilian Music / Jazz-Rock / MPB / Vanguarda paulistana
Audio FLAC (*.flac) / tracks+.cue / lossless / CD
Сканов в содержимом раздачи нет
Источник whatCD / redacted
 
total length (03.39.48)
 
Juçara Marçal
 
[2008, Tratore / 2429414] ∘ CD "Padê" ∘ Juçara Marçal e Kiko Dinucci

time 00.46.11

01. Padê (02:24)
02. São Jorge (03:06)
03. Machado de Xangô (03:42)
04. Atotô (03:09)
05. Jatobá (03:27)
06. Cabloca Jurema (03:55)
07. Mar de lágrima (04:31)
08. Engasga gato / Casa barata (03:26)
09. Samba estranho (04:08)
10. Velha morena (01:38)
11. Imitação (03:17)
12. Batuque pra Ney (03:11)
13. Bate baú / Coruja batuqueira (02:37)
14. Roda de Sampa (03:48)
 
Участники

Juçara Marçal vocals / writer
Kiko Dinucci acoustic guitar / writer
Lincoln Antonio piano / writer
Samba Sam percussion
Marcelo Mainieri bass
 
log
Exact Audio Copy V1.0 beta 3 from 29. August 2011
EAC extraction logfile from 19. January 2013, 10:21
Juçara Marçal e Kiko Dinucci / Padê
Used drive : HL-DT-STDVDRWBD CT40N Adapter: 0 ID: 1
Read mode : Secure
Utilize accurate stream : Yes
Defeat audio cache : Yes
Make use of C2 pointers : No
Read offset correction : 102
Overread into Lead-In and Lead-Out : No
Fill up missing offset samples with silence : Yes
Delete leading and trailing silent blocks : No
Null samples used in CRC calculations : Yes
Used interface : Native Win32 interface for Win NT & 2000
Gap handling : Appended to previous track
Used output format : User Defined Encoder
Selected bitrate : 1024 kBit/s
Quality : High
Add ID3 tag : No
Command line compressor : C:\Program Files (x86)\Exact Audio Copy\Flac\flac.exe
Additional command line options : -8 -V -T "ARTIST=%artist%" -T "TITLE=%title%" -T "ALBUM=%albumtitle%" -T "DATE=%year%" -T "TRACKNUMBER=%tracknr%" -T "GENRE=%genre%" -T "PERFORMER=%albuminterpret%" -T "COMPOSER=%composer%" %haslyrics%--tag-from-file=LYRICS="%lyricsfile%"%haslyrics% -T "ALBUMARTIST=%albumartist%" -T "DISCNUMBER=%cdnumber%" -T "TOTALDISCS=%totalcds%" -T "TOTALTRACKS=%numtracks%" -T "COMMENT=%comment%" %source% -o %dest%
TOC of the extracted CD
Track | Start | Length | Start sector | End sector
---------------------------------------------------------
1 | 0:00.00 | 2:23.58 | 0 | 10782
2 | 2:23.58 | 3:05.21 | 10783 | 24678
3 | 5:29.04 | 3:41.04 | 24679 | 41257
4 | 9:10.08 | 3:08.12 | 41258 | 55369
5 | 12:18.20 | 3:26.16 | 55370 | 70835
6 | 15:44.36 | 3:54.58 | 70836 | 88443
7 | 19:39.19 | 4:30.37 | 88444 | 108730
8 | 24:09.56 | 3:25.51 | 108731 | 124156
9 | 27:35.32 | 4:07.34 | 124157 | 142715
10 | 31:42.66 | 1:37.16 | 142716 | 150006
11 | 33:20.07 | 3:16.08 | 150007 | 164714
12 | 36:36.15 | 3:10.25 | 164715 | 178989
13 | 39:46.40 | 2:36.24 | 178990 | 190713
14 | 42:22.64 | 3:47.29 | 190714 | 207767
Track 1
Filename C:\EAC Rips\01 Padê.wav
Pre-gap length 0:00:02.00
Peak level 98.8 %
Extraction speed 1.8 X
Track quality 99.9 %
Test CRC 731A097B
Copy CRC 731A097B
Track not present in AccurateRip database
Copy OK
Track 2
Filename C:\EAC Rips\02 São Jorge.wav
Pre-gap length 0:00:01.00
Peak level 98.8 %
Extraction speed 2.1 X
Track quality 99.9 %
Test CRC 93A1390F
Copy CRC 93A1390F
Track not present in AccurateRip database
Copy OK
Track 3
Filename C:\EAC Rips\03 Machado de Xangô.wav
Pre-gap length 0:00:02.00
Peak level 97.7 %
Extraction speed 2.9 X
Track quality 100.0 %
Test CRC 3F631F75
Copy CRC 3F631F75
Track not present in AccurateRip database
Copy OK
Track 4
Filename C:\EAC Rips\04 Atotô.wav
Pre-gap length 0:00:02.00
Peak level 98.8 %
Extraction speed 3.1 X
Track quality 100.0 %
Test CRC 2A110BA8
Copy CRC 2A110BA8
Track not present in AccurateRip database
Copy OK
Track 5
Filename C:\EAC Rips\05 Jatobá.wav
Pre-gap length 0:00:02.00
Peak level 96.6 %
Extraction speed 3.3 X
Track quality 100.0 %
Test CRC A3313E68
Copy CRC A3313E68
Track not present in AccurateRip database
Copy OK
Track 6
Filename C:\EAC Rips\06 Cabloca Jurema.wav
Peak level 90.1 %
Extraction speed 3.6 X
Track quality 100.0 %
Test CRC 517FC52E
Copy CRC 517FC52E
Track not present in AccurateRip database
Copy OK
Track 7
Filename C:\EAC Rips\07 Mar de Lágrima.wav
Pre-gap length 0:00:00.61
Peak level 97.7 %
Extraction speed 3.9 X
Track quality 100.0 %
Test CRC 5C9D5AE7
Copy CRC 5C9D5AE7
Track not present in AccurateRip database
Copy OK
Track 8
Filename C:\EAC Rips\08 Engasga Gato, Casa Barata.wav
Pre-gap length 0:00:02.00
Peak level 98.8 %
Extraction speed 4.0 X
Track quality 100.0 %
Test CRC 32FD471B
Copy CRC 32FD471B
Track not present in AccurateRip database
Copy OK
Track 9
Filename C:\EAC Rips\09 Samba Estranho.wav
Peak level 98.8 %
Extraction speed 4.0 X
Track quality 100.0 %
Test CRC E52AF064
Copy CRC E52AF064
Track not present in AccurateRip database
Copy OK
Track 10
Filename C:\EAC Rips\10 Velha Morena.wav
Pre-gap length 0:00:02.00
Peak level 98.8 %
Extraction speed 3.3 X
Track quality 100.0 %
Test CRC 28307C70
Copy CRC 28307C70
Track not present in AccurateRip database
Copy OK
Track 11
Filename C:\EAC Rips\11 Imitação.wav
Peak level 98.8 %
Extraction speed 4.0 X
Track quality 100.0 %
Test CRC 4B3FA23F
Copy CRC 4B3FA23F
Track not present in AccurateRip database
Copy OK
Track 12
Filename C:\EAC Rips\12 Batuque pra Ney.wav
Pre-gap length 0:00:02.00
Peak level 98.7 %
Extraction speed 4.2 X
Track quality 100.0 %
Test CRC C3C99AC0
Copy CRC C3C99AC0
Track not present in AccurateRip database
Copy OK
Track 13
Filename C:\EAC Rips\13 Bate Baú, Coruja Batuqueira.wav
Peak level 100.0 %
Extraction speed 4.0 X
Track quality 100.0 %
Test CRC 0E9C2E47
Copy CRC 0E9C2E47
Track not present in AccurateRip database
Copy OK
Track 14
Filename C:\EAC Rips\14 Roda de Sampa.wav
Pre-gap length 0:00:00.45
Peak level 98.8 %
Extraction speed 3.7 X
Track quality 99.9 %
Test CRC 610F0A5B
Copy CRC 610F0A5B
Track not present in AccurateRip database
Copy OK
None of the tracks are present in the AccurateRip database
No errors occurred
End of status report
---- CUETools DB Plugin V2.1.3
[CTDB TOCID: maz7APAqhew4oIYQ2.X1Lo4Vu1E-] disk not present in database, Submit result: maz7APAqhew4oIYQ2.X1Lo4Vu1E- has been uploaded
==== Log checksum A2AE96EE1F44F8D12099D7C6792C4E8587B43A2AFA8153A4AB535BA6F41FD357 ====
 
.cue
REM GENRE "Vanguarda paulistana"
REM DATE 2008
REM DISCID B00AD20E
REM COMMENT "ExactAudioCopy v1.0b3"
PERFORMER "Juçara Marçal e Kiko Dinucci"
TITLE "Padê"
FILE "01. Padê.wav" WAVE
TRACK 01 AUDIO
TITLE "Padê"
PERFORMER "Juçara Marçal e Kiko Dinucci"
ISRC BRONC0700001
INDEX 01 00:00:00
TRACK 02 AUDIO
TITLE "São Jorge"
PERFORMER "Juçara Marçal e Kiko Dinucci"
ISRC BRONC0700002
INDEX 00 02:22:58
FILE "02. São Jorge.wav" WAVE
INDEX 01 00:00:00
TRACK 03 AUDIO
TITLE "Machado de Xangô"
PERFORMER "Juçara Marçal e Kiko Dinucci"
ISRC BRONC0700013
INDEX 00 03:03:21
FILE "03. Machado de Xangô.wav" WAVE
INDEX 01 00:00:00
TRACK 04 AUDIO
TITLE "Atotô"
PERFORMER "Juçara Marçal e Kiko Dinucci"
ISRC BRONC0700003
INDEX 00 03:39:04
FILE "04. Atotô.wav" WAVE
INDEX 01 00:00:00
TRACK 05 AUDIO
TITLE "Jatobá"
PERFORMER "Juçara Marçal e Kiko Dinucci"
ISRC BRONC0700004
INDEX 00 03:06:12
FILE "05. Jatobá.wav" WAVE
INDEX 01 00:00:00
FILE "06. Cabloca Jurema.wav" WAVE
TRACK 06 AUDIO
TITLE "Cabloca Jurema"
PERFORMER "Juçara Marçal e Kiko Dinucci"
ISRC BRONC0700009
INDEX 01 00:00:00
TRACK 07 AUDIO
TITLE "Mar de lágrima"
PERFORMER "Juçara Marçal e Kiko Dinucci"
ISRC BRONC0700012
INDEX 00 03:54:12
FILE "07. Mar de lágrima.wav" WAVE
INDEX 01 00:00:00
TRACK 08 AUDIO
TITLE "Engasga gato / Casa barata"
PERFORMER "Juçara Marçal e Kiko Dinucci"
ISRC BRONC0700011
INDEX 00 04:28:37
FILE "08. Engasga gato / Casa barata.wav" WAVE
INDEX 01 00:00:00
FILE "09. Samba estranho.wav" WAVE
TRACK 09 AUDIO
TITLE "Samba estranho"
PERFORMER "Juçara Marçal e Kiko Dinucci"
ISRC BRONC0700007
INDEX 01 00:00:00
TRACK 10 AUDIO
TITLE "Velha morena"
PERFORMER "Juçara Marçal e Kiko Dinucci"
ISRC BRONC0700005
INDEX 00 04:05:34
FILE "10. Velha morena.wav" WAVE
INDEX 01 00:00:00
FILE "11. Imitação.wav" WAVE
TRACK 11 AUDIO
TITLE "Imitação"
PERFORMER "Juçara Marçal e Kiko Dinucci"
ISRC BRONC0700014
INDEX 01 00:00:00
TRACK 12 AUDIO
TITLE "Batuque pra Ney"
PERFORMER "Juçara Marçal e Kiko Dinucci"
ISRC BRONC0700008
INDEX 00 03:14:08
FILE "12. Batuque pra Ney.wav" WAVE
INDEX 01 00:00:00
FILE "13. Bate baú / Coruja batuqueira.wav" WAVE
TRACK 13 AUDIO
TITLE "Bate baú / Coruja batuqueira"
PERFORMER "Juçara Marçal e Kiko Dinucci"
ISRC BRONC0700008
INDEX 01 00:00:00
TRACK 14 AUDIO
TITLE "Roda de Sampa"
PERFORMER "Juçara Marçal e Kiko Dinucci"
ISRC BRONC0700006
INDEX 00 02:35:65
FILE "14. Roda de Sampa.wav" WAVE
INDEX 01 00:00:00
 
[2014, self released / none] ∘ CD "Encarnado"

time 00.40.29

01. Velho amarelo (04:26)
02. Damião (02:07)
03. Queimando a língua (05:05)
04. Pena mais que perfeita (04:17)
05. Odoya (02:50)
06. Ciranda do aborto (05:41)
07. Canção pra ninar Oxum (03:26)
08. E o quico? (02:43)
09. Não tenha ódio no verão (02:53)
10. A velha da capa preta (03:48)
11. Presente de casamento (01:19)
12. João Carranca (02:01)
 
Участники

Juçara Marçal vocals / producer / writer
Rodrigo Campos guitar / cavaquinho / producer / writer
Kiko Dinucci guitar / producer / drawings / writer
Thomas Rohrer rabeca
 
log
Exact Audio Copy V1.0 beta 4 from 7. December 2014
EAC extraction logfile from 13. April 2015, 12:14
Juçara Marçal / Encarnado
Used drive : SlimtypeDVD A DS8A8SH Adapter: 1 ID: 0
Read mode : Secure
Utilize accurate stream : Yes
Defeat audio cache : Yes
Make use of C2 pointers : No
Read offset correction : 6
Overread into Lead-In and Lead-Out : No
Fill up missing offset samples with silence : Yes
Delete leading and trailing silent blocks : No
Null samples used in CRC calculations : Yes
Used interface : Native Win32 interface for Win NT & 2000
Gap handling : Appended to previous track
Used output format : User Defined Encoder
Selected bitrate : 1024 kBit/s
Quality : High
Add ID3 tag : No
Command line compressor : C:\Program Files (x86)\Exact Audio Copy\FLAC\flac.exe
Additional command line options : -8 -V -T "ARTIST=%artist%" -T "TITLE=%title%" -T "ALBUM=%albumtitle%" -T "DATE=%year%" -T "TRACKNUMBER=%tracknr%" -T "GENRE=%genre%" -T "PERFORMER=%albuminterpret%" -T "COMPOSER=%composer%" %haslyrics%--tag-from-file=LYRICS="%lyricsfile%"%haslyrics% -T "ALBUMARTIST=%albumartist%" -T "DISCNUMBER=%cdnumber%" -T "TOTALDISCS=%totalcds%" -T "TOTALTRACKS=%numtracks%" -T "COMMENT=%comment%" %source% -o %dest%
TOC of the extracted CD
Track | Start | Length | Start sector | End sector
---------------------------------------------------------
1 | 0:00.00 | 4:25.17 | 0 | 19891
2 | 4:25.17 | 2:06.47 | 19892 | 29388
3 | 6:31.64 | 5:04.12 | 29389 | 52200
4 | 11:36.01 | 4:16.30 | 52201 | 71430
5 | 15:52.31 | 2:49.15 | 71431 | 84120
6 | 18:41.46 | 5:40.49 | 84121 | 109669
7 | 24:22.20 | 3:25.30 | 109670 | 125074
8 | 27:47.50 | 2:42.39 | 125075 | 137263
9 | 30:30.14 | 2:52.54 | 137264 | 150217
10 | 33:22.68 | 3:47.09 | 150218 | 167251
11 | 37:10.02 | 1:18.51 | 167252 | 173152
12 | 38:28.53 | 2:00.07 | 173153 | 182159
Track 1
Filename C:\EAC RIPS\Juçara Marçal - Encarnado (2014) (CD) [320]\01 Velho Amarelo.wav
Pre-gap length 0:00:02.00
Peak level 96.6 %
Extraction speed 1.3 X
Track quality 100.0 %
Test CRC BB6BF438
Copy CRC BB6BF438
Track not present in AccurateRip database
Copy OK
Track 2
Filename C:\EAC RIPS\Juçara Marçal - Encarnado (2014) (CD) [320]\02 Damião.wav
Peak level 96.6 %
Extraction speed 1.2 X
Track quality 100.0 %
Test CRC 9EF2F732
Copy CRC 9EF2F732
Track not present in AccurateRip database
Copy OK
Track 3
Filename C:\EAC RIPS\Juçara Marçal - Encarnado (2014) (CD) [320]\03 Queimando a Língua.wav
Peak level 96.6 %
Extraction speed 1.5 X
Track quality 100.0 %
Test CRC D85013CF
Copy CRC D85013CF
Track not present in AccurateRip database
Copy OK
Track 4
Filename C:\EAC RIPS\Juçara Marçal - Encarnado (2014) (CD) [320]\04 Pena Mais Que Perfeita.wav
Peak level 96.6 %
Extraction speed 1.6 X
Track quality 100.0 %
Test CRC 8AAA0DB4
Copy CRC 8AAA0DB4
Track not present in AccurateRip database
Copy OK
Track 5
Filename C:\EAC RIPS\Juçara Marçal - Encarnado (2014) (CD) [320]\05 Odoya.wav
Peak level 96.6 %
Extraction speed 1.6 X
Track quality 100.0 %
Test CRC 16F62A48
Copy CRC 16F62A48
Track not present in AccurateRip database
Copy OK
Track 6
Filename C:\EAC RIPS\Juçara Marçal - Encarnado (2014) (CD) [320]\06 Ciranda do Aborto.wav
Peak level 96.6 %
Extraction speed 1.8 X
Track quality 100.0 %
Test CRC 81B47C3C
Copy CRC 81B47C3C
Track not present in AccurateRip database
Copy OK
Track 7
Filename C:\EAC RIPS\Juçara Marçal - Encarnado (2014) (CD) [320]\07 Canção Pra Ninar Oxum.wav
Peak level 96.6 %
Extraction speed 1.8 X
Track quality 100.0 %
Test CRC F7A849C3
Copy CRC F7A849C3
Track not present in AccurateRip database
Copy OK
Track 8
Filename C:\EAC RIPS\Juçara Marçal - Encarnado (2014) (CD) [320]\08 E o Quico.wav
Pre-gap length 0:00:00.01
Peak level 96.6 %
Extraction speed 1.8 X
Track quality 100.0 %
Test CRC 1F23683D
Copy CRC 1F23683D
Track not present in AccurateRip database
Copy OK
Track 9
Filename C:\EAC RIPS\Juçara Marçal - Encarnado (2014) (CD) [320]\09 Não Tenha Ódio No Verão.wav
Peak level 96.6 %
Extraction speed 1.9 X
Track quality 100.0 %
Test CRC FA8C13AA
Copy CRC FA8C13AA
Track not present in AccurateRip database
Copy OK
Track 10
Filename C:\EAC RIPS\Juçara Marçal - Encarnado (2014) (CD) [320]\10 A Velha Da Capa Preta.wav
Peak level 96.6 %
Extraction speed 2.0 X
Track quality 100.0 %
Test CRC 348D3636
Copy CRC 348D3636
Track not present in AccurateRip database
Copy OK
Track 11
Filename C:\EAC RIPS\Juçara Marçal - Encarnado (2014) (CD) [320]\11 Presente de Casamento.wav
Peak level 96.6 %
Extraction speed 1.2 X
Track quality 99.8 %
Test CRC 3D3D024E
Copy CRC 3D3D024E
Track not present in AccurateRip database
Copy OK
Track 12
Filename C:\EAC RIPS\Juçara Marçal - Encarnado (2014) (CD) [320]\12 João Carranca.wav
Peak level 96.6 %
Extraction speed 1.8 X
Track quality 100.0 %
Test CRC 38E65A22
Copy CRC 38E65A22
Track not present in AccurateRip database
Copy OK
None of the tracks are present in the AccurateRip database
No errors occurred
End of status report
---- CUETools DB Plugin V2.1.4
[CTDB TOCID: 0mK2TCPJuQ.5KgKIVAJVYq0OyNU-] disk not present in database
Submit result: 0mK2TCPJuQ.5KgKIVAJVYq0OyNU- has been uploaded
==== Log checksum BBAC33E5844704E83EFB990649285D9984786B00BB90DEE3C5EDAA3627AB1053 ====
 
.cue
REM GENRE "Vanguarda paulistana"
REM DATE 2014
REM DISCID 98097C0C
REM COMMENT "ExactAudioCopy v1.0b4"
PERFORMER "Juçara Marçal"
TITLE "Encarnado"
FILE "01. Velho amarelo.wav" WAVE
TRACK 01 AUDIO
TITLE "Velho amarelo"
PERFORMER "Juçara Marçal"
INDEX 01 00:00:00
FILE "02. Damião.wav" WAVE
TRACK 02 AUDIO
TITLE "Damião"
PERFORMER "Juçara Marçal"
INDEX 01 00:00:00
FILE "03. Queimando a língua.wav" WAVE
TRACK 03 AUDIO
TITLE "Queimando a língua"
PERFORMER "Juçara Marçal"
INDEX 01 00:00:00
FILE "04. Pena mais que perfeita.wav" WAVE
TRACK 04 AUDIO
TITLE "Pena mais que perfeita"
PERFORMER "Juçara Marçal"
INDEX 01 00:00:00
FILE "05. Odoya.wav" WAVE
TRACK 05 AUDIO
TITLE "Odoya"
PERFORMER "Juçara Marçal"
INDEX 01 00:00:00
FILE "06. Ciranda do aborto.wav" WAVE
TRACK 06 AUDIO
TITLE "Ciranda do aborto"
PERFORMER "Juçara Marçal"
INDEX 01 00:00:00
FILE "07. Canção pra ninar Oxum.wav" WAVE
TRACK 07 AUDIO
TITLE "Canção pra ninar Oxum"
PERFORMER "Juçara Marçal"
INDEX 01 00:00:00
TRACK 08 AUDIO
TITLE "E o quico?"
PERFORMER "Juçara Marçal"
INDEX 00 03:25:29
FILE "08. E o quico?.wav" WAVE
INDEX 01 00:00:00
FILE "09. Não tenha ódio no verão.wav" WAVE
TRACK 09 AUDIO
TITLE "Não tenha ódio no verão"
PERFORMER "Juçara Marçal"
INDEX 01 00:00:00
FILE "10. A velha da capa preta.wav" WAVE
TRACK 10 AUDIO
TITLE "A velha da capa preta"
PERFORMER "Juçara Marçal"
INDEX 01 00:00:00
FILE "11. Presente de casamento.wav" WAVE
TRACK 11 AUDIO
TITLE "Presente de casamento"
PERFORMER "Juçara Marçal"
INDEX 01 00:00:00
FILE "12. João Carranca.wav" WAVE
TRACK 12 AUDIO
TITLE "João Carranca"
PERFORMER "Juçara Marçal"
INDEX 01 00:00:00
 
Metá Metá
 
[2011, Desmonta / dsm 010] ∘ CD "Metá Metá"

time 00.43.17

01. Vale do Jucá (04:44)
02. Umbigada (03:31)
03. Papel sulfite (03:28)
04. Trovoa (05:56)
05. Samuel (02:23)
06. Vias de fato (03:50)
07. Oranian (03:59)
08. Obá Iná (05:04)
09. Obatalá (07:55)
10. Ora le le o (02:33)
 
Участники

Juçara Marçal vocals / producer
Thiago França producer / saxophone / flute
Kiko Dinucci acoustic guitar / producer / writer / vocals
 
log
Exact Audio Copy V1.0 beta 4 from 7. December 2014
EAC extraction logfile from 5. March 2015, 4:21
Metá Metá / Metá Metá
Used drive : SlimtypeDVD A DS8A8SH Adapter: 1 ID: 0
Read mode : Secure
Utilize accurate stream : Yes
Defeat audio cache : Yes
Make use of C2 pointers : No
Read offset correction : 6
Overread into Lead-In and Lead-Out : No
Fill up missing offset samples with silence : Yes
Delete leading and trailing silent blocks : No
Null samples used in CRC calculations : Yes
Used interface : Native Win32 interface for Win NT & 2000
Gap handling : Appended to previous track
Used output format : User Defined Encoder
Selected bitrate : 1024 kBit/s
Quality : High
Add ID3 tag : No
Command line compressor : C:\Program Files (x86)\Exact Audio Copy\FLAC\flac.exe
Additional command line options : -8 -V -T "ARTIST=%artist%" -T "TITLE=%title%" -T "ALBUM=%albumtitle%" -T "DATE=%year%" -T "TRACKNUMBER=%tracknr%" -T "GENRE=%genre%" -T "PERFORMER=%albuminterpret%" -T "COMPOSER=%composer%" %haslyrics%--tag-from-file=LYRICS="%lyricsfile%"%haslyrics% -T "ALBUMARTIST=%albumartist%" -T "DISCNUMBER=%cdnumber%" -T "TOTALDISCS=%totalcds%" -T "TOTALTRACKS=%numtracks%" -T "COMMENT=%comment%" %source% -o %dest%
TOC of the extracted CD
Track | Start | Length | Start sector | End sector
---------------------------------------------------------
1 | 0:00.00 | 4:43.02 | 0 | 21226
2 | 4:43.02 | 3:30.03 | 21227 | 36979
3 | 8:13.05 | 3:27.07 | 36980 | 52511
4 | 11:40.12 | 5:55.06 | 52512 | 79142
5 | 17:35.18 | 2:22.53 | 79143 | 89845
6 | 19:57.71 | 3:49.57 | 89846 | 107077
7 | 23:47.53 | 3:58.51 | 107078 | 124978
8 | 27:46.29 | 5:03.57 | 124979 | 147760
9 | 32:50.11 | 7:54.40 | 147761 | 183350
10 | 40:44.51 | 2:32.20 | 183351 | 194770
Track 2
Filename C:\EAC RIPS\Metá Metá - Metá Metá (2011) (CD) [FLAC]\02 Umbigada.wav
Copy aborted
No tracks could be verified as accurate
There were errors
End of status report
==== Log checksum C15005F5DFB43C364A231EEAB7652B28A5AAB630D48EEDE3F0C7C84A5FE53894 ====
------------------------------------------------------------
Exact Audio Copy V1.0 beta 4 from 7. December 2014
EAC extraction logfile from 5. March 2015, 5:22
Metá Metá / Metá Metá
Used drive : SlimtypeDVD A DS8A8SH Adapter: 1 ID: 0
Read mode : Secure
Utilize accurate stream : Yes
Defeat audio cache : Yes
Make use of C2 pointers : No
Read offset correction : 6
Overread into Lead-In and Lead-Out : No
Fill up missing offset samples with silence : Yes
Delete leading and trailing silent blocks : No
Null samples used in CRC calculations : Yes
Used interface : Native Win32 interface for Win NT & 2000
Gap handling : Appended to previous track
Used output format : User Defined Encoder
Selected bitrate : 1024 kBit/s
Quality : High
Add ID3 tag : No
Command line compressor : C:\Program Files (x86)\Exact Audio Copy\FLAC\flac.exe
Additional command line options : -8 -V -T "ARTIST=%artist%" -T "TITLE=%title%" -T "ALBUM=%albumtitle%" -T "DATE=%year%" -T "TRACKNUMBER=%tracknr%" -T "GENRE=%genre%" -T "PERFORMER=%albuminterpret%" -T "COMPOSER=%composer%" %haslyrics%--tag-from-file=LYRICS="%lyricsfile%"%haslyrics% -T "ALBUMARTIST=%albumartist%" -T "DISCNUMBER=%cdnumber%" -T "TOTALDISCS=%totalcds%" -T "TOTALTRACKS=%numtracks%" -T "COMMENT=%comment%" %source% -o %dest%
TOC of the extracted CD
Track | Start | Length | Start sector | End sector
---------------------------------------------------------
1 | 0:00.00 | 4:43.02 | 0 | 21226
2 | 4:43.02 | 3:30.03 | 21227 | 36979
3 | 8:13.05 | 3:27.07 | 36980 | 52511
4 | 11:40.12 | 5:55.06 | 52512 | 79142
5 | 17:35.18 | 2:22.53 | 79143 | 89845
6 | 19:57.71 | 3:49.57 | 89846 | 107077
7 | 23:47.53 | 3:58.51 | 107078 | 124978
8 | 27:46.29 | 5:03.57 | 124979 | 147760
9 | 32:50.11 | 7:54.40 | 147761 | 183350
10 | 40:44.51 | 2:32.20 | 183351 | 194770
Track 1
Filename C:\EAC RIPS\Metá Metá - Metá Metá (2011) (CD) [FLAC]\01 Vale do Jucá.wav
Pre-gap length 0:00:02.00
Peak level 98.6 %
Extraction speed 1.3 X
Track quality 100.0 %
Test CRC 0FB2D087
Copy CRC 0FB2D087
Track not present in AccurateRip database
Copy OK
Track 2
Filename C:\EAC RIPS\Metá Metá - Metá Metá (2011) (CD) [FLAC]\02 Umbigada.wav
Peak level 96.6 %
Extraction speed 1.4 X
Track quality 100.0 %
Test CRC C2563E62
Copy CRC C2563E62
Track not present in AccurateRip database
Copy OK
Track 3
Filename C:\EAC RIPS\Metá Metá - Metá Metá (2011) (CD) [FLAC]\03 Papel sulfite.wav
Peak level 98.8 %
Extraction speed 1.4 X
Track quality 100.0 %
Test CRC F77D2E0F
Copy CRC F77D2E0F
Track not present in AccurateRip database
Copy OK
Track 4
Filename C:\EAC RIPS\Metá Metá - Metá Metá (2011) (CD) [FLAC]\04 Trovoa.wav
Peak level 98.8 %
Extraction speed 1.7 X
Track quality 100.0 %
Test CRC 0E910A99
Copy CRC 0E910A99
Track not present in AccurateRip database
Copy OK
Track 5
Filename C:\EAC RIPS\Metá Metá - Metá Metá (2011) (CD) [FLAC]\05 Samuel.wav
Peak level 93.4 %
Extraction speed 1.6 X
Track quality 100.0 %
Test CRC 7B47E21A
Copy CRC 7B47E21A
Track not present in AccurateRip database
Copy OK
Track 6
Filename C:\EAC RIPS\Metá Metá - Metá Metá (2011) (CD) [FLAC]\06 Vias de fato.wav
Peak level 95.0 %
Extraction speed 1.5 X
Track quality 99.9 %
Test CRC E4A9C464
Copy CRC E4A9C464
Track not present in AccurateRip database
Copy OK
Track 7
Filename C:\EAC RIPS\Metá Metá - Metá Metá (2011) (CD) [FLAC]\07 Oranian.wav
Peak level 95.5 %
Extraction speed 1.6 X
Track quality 99.9 %
Test CRC F598E047
Copy CRC F598E047
Track not present in AccurateRip database
Copy OK
Track 8
Filename C:\EAC RIPS\Metá Metá - Metá Metá (2011) (CD) [FLAC]\08 Obá Iná.wav
Peak level 91.5 %
Extraction speed 1.8 X
Track quality 99.9 %
Test CRC 71138EB6
Copy CRC 71138EB6
Track not present in AccurateRip database
Copy OK
Track 9
Filename C:\EAC RIPS\Metá Metá - Metá Metá (2011) (CD) [FLAC]\09 Obatalá.wav
Peak level 97.9 %
Extraction speed 2.2 X
Track quality 100.0 %
Test CRC AAFBFCE3
Copy CRC AAFBFCE3
Track not present in AccurateRip database
Copy OK
Track 10
Filename C:\EAC RIPS\Metá Metá - Metá Metá (2011) (CD) [FLAC]\10 Ora le le o.wav
Peak level 93.6 %
Extraction speed 2.0 X
Track quality 100.0 %
Test CRC 6A793F12
Copy CRC 6A793F12
Track not present in AccurateRip database
Copy OK
None of the tracks are present in the AccurateRip database
No errors occurred
End of status report
---- CUETools DB Plugin V2.1.4
[CTDB TOCID: p1xi86yCXZ59QhFNAtobCIuVqRA-] disk not present in database
Submit result: p1xi86yCXZ59QhFNAtobCIuVqRA- has been uploaded
==== Log checksum B562EE52CDB774A185FD20BDEFAF068129A4BDB859D2357D938DA65AC721465D ====
 
.cue
REM GENRE "Vanguarda paulistana"
REM DATE 2011
REM DISCID 950A240A
REM COMMENT "ExactAudioCopy v1.0b4"
PERFORMER "Metá Metá"
TITLE "Metá Metá"
FILE "01. Vale do Jucá.wav" WAVE
TRACK 01 AUDIO
TITLE "Vale do Jucá"
PERFORMER "Metá Metá"
INDEX 01 00:00:00
FILE "02. Umbigada.wav" WAVE
TRACK 02 AUDIO
TITLE "Umbigada"
PERFORMER "Metá Metá"
INDEX 01 00:00:00
FILE "03. Papel sulfite.wav" WAVE
TRACK 03 AUDIO
TITLE "Papel sulfite"
PERFORMER "Metá Metá"
INDEX 01 00:00:00
FILE "04. Trovoa.wav" WAVE
TRACK 04 AUDIO
TITLE "Trovoa"
PERFORMER "Metá Metá"
INDEX 01 00:00:00
FILE "05. Samuel.wav" WAVE
TRACK 05 AUDIO
TITLE "Samuel"
PERFORMER "Metá Metá"
INDEX 01 00:00:00
FILE "06. Vias de fato.wav" WAVE
TRACK 06 AUDIO
TITLE "Vias de fato"
PERFORMER "Metá Metá"
INDEX 01 00:00:00
FILE "07. Oranian.wav" WAVE
TRACK 07 AUDIO
TITLE "Oranian"
PERFORMER "Metá Metá"
INDEX 01 00:00:00
FILE "08. Obá Iná.wav" WAVE
TRACK 08 AUDIO
TITLE "Obá Iná"
PERFORMER "Metá Metá"
INDEX 01 00:00:00
FILE "09. Obatalá.wav" WAVE
TRACK 09 AUDIO
TITLE "Obatalá"
PERFORMER "Metá Metá"
INDEX 01 00:00:00
FILE "10. Ora le le o.wav" WAVE
TRACK 10 AUDIO
TITLE "Ora le le o"
PERFORMER "Metá Metá"
INDEX 01 00:00:00
 
[2012, Mais Um Discos / MAIS 018] ∘ CD "MetaL MetaL"

time 00.49.19

01. Exu (01:50)
02. Orunmila (04:04)
03. Man feriman (07:33)
04. Cobra rasteira (04:31)
05. São Jorge (03:35)
06. Oya (05:25)
07. São Paulo no Shaking (03:56)
08. Logun (07:57)
09. Rainha das cabeças (03:52)
10. Alakorô (04:26)
11. Tristeza não (02:16)
 
Участники

Juçara Marçal vocals
Kiko Dinucci vocals / acoustic guitar / guitar / percussion / writer
Thiago França saxophone / flute / Electronic Wind Instrument
Sérgio Machado drums
Samba Sam percussion
Marcelo Cabral bass
 
log
Exact Audio Copy V1.0 beta 3 from 29. August 2011
EAC extraction logfile from 29. October 2014, 14:40
Metá Metá / MetaL MetaL
Used drive : ASUS DRW-24B3ST Adapter: 2 ID: 1
Read mode : Secure
Utilize accurate stream : Yes
Defeat audio cache : Yes
Make use of C2 pointers : No
Read offset correction : 6
Overread into Lead-In and Lead-Out : No
Fill up missing offset samples with silence : Yes
Delete leading and trailing silent blocks : No
Null samples used in CRC calculations : Yes
Used interface : Native Win32 interface for Win NT & 2000
Gap handling : Appended to previous track
Used output format : User Defined Encoder
Selected bitrate : 1024 kBit/s
Quality : High
Add ID3 tag : No
Command line compressor : C:\Program Files (x86)\Exact Audio Copy\Flac\flac.exe
Additional command line options : -8 -V -T "ARTIST=%artist%" -T "TITLE=%title%" -T "ALBUM=%albumtitle%" -T "DATE=%year%" -T "TRACKNUMBER=%tracknr%" -T "GENRE=%genre%" -T "PERFORMER=%albuminterpret%" -T "COMPOSER=%composer%" %haslyrics%-tag-from-file=LYRICS="%lyricsfile%"%haslyrics% -T "ALBUMARTIST=%albumartist%" -T "DISCNUMBER=%cdnumber%" -T "TOTALDISCS=%totalcds%" -T "TOTALTRACKS=%numtracks%" -T "COMMENT=%comment%" %source% -o %dest%
TOC of the extracted CD
Track | Start | Length | Start sector | End sector
---------------------------------------------------------
1 | 0:00.00 | 1:49.04 | 0 | 8178
2 | 1:49.04 | 4:03.39 | 8179 | 26442
3 | 5:52.43 | 7:32.37 | 26443 | 60379
4 | 13:25.05 | 4:30.36 | 60380 | 80665
5 | 17:55.41 | 3:34.44 | 80666 | 96759
6 | 21:30.10 | 5:24.18 | 96760 | 121077
7 | 26:54.28 | 3:55.23 | 121078 | 138725
8 | 30:49.51 | 7:56.72 | 138726 | 174497
9 | 38:46.48 | 3:51.37 | 174498 | 191859
10 | 42:38.10 | 4:25.33 | 191860 | 211767
11 | 47:03.43 | 2:15.22 | 211768 | 221914
Track 1
Filename E:\EACrips\01 Exu.wav
Pre-gap length 0:00:02.00
Peak level 96.6 %
Extraction speed 2.7 X
Track quality 100.0 %
Test CRC 0DFE9020
Copy CRC 0DFE9020
Track not present in AccurateRip database
Copy OK
Track 2
Filename E:\EACrips\02 Orunmila.wav
Pre-gap length 0:00:00.45
Peak level 96.6 %
Extraction speed 3.5 X
Track quality 100.0 %
Test CRC D2858A22
Copy CRC D2858A22
Track not present in AccurateRip database
Copy OK
Track 3
Filename E:\EACrips\03 Man feriman.wav
Peak level 96.6 %
Extraction speed 3.8 X
Track quality 99.9 %
Test CRC 868DAAD7
Copy CRC 868DAAD7
Track not present in AccurateRip database
Copy OK
Track 4
Filename E:\EACrips\04 Cobra rasteira.wav
Peak level 96.6 %
Extraction speed 4.6 X
Track quality 100.0 %
Test CRC 183E009F
Copy CRC 183E009F
Track not present in AccurateRip database
Copy OK
Track 5
Filename E:\EACrips\05 São Jorge.wav
Pre-gap length 0:00:00.02
Peak level 96.6 %
Extraction speed 4.7 X
Track quality 100.0 %
Test CRC 52B23292
Copy CRC 52B23292
Track not present in AccurateRip database
Copy OK
Track 6
Filename E:\EACrips\06 Oya.wav
Pre-gap length 0:00:00.38
Peak level 96.6 %
Extraction speed 5.2 X
Track quality 100.0 %
Test CRC D096204B
Copy CRC D096204B
Track not present in AccurateRip database
Copy OK
Track 7
Filename E:\EACrips\07 São Paulo No Shaking.wav
Pre-gap length 0:00:00.70
Peak level 100.0 %
Extraction speed 5.3 X
Track quality 100.0 %
Test CRC 5F61ABDA
Copy CRC 5F61ABDA
Track not present in AccurateRip database
Copy OK
Track 8
Filename E:\EACrips\08 Logun.wav
Pre-gap length 0:00:00.17
Peak level 96.6 %
Extraction speed 6.0 X
Track quality 100.0 %
Test CRC 15AD7377
Copy CRC 15AD7377
Track not present in AccurateRip database
Copy OK
Track 9
Filename E:\EACrips\09 Rainha das cabeças.wav
Peak level 96.6 %
Extraction speed 5.9 X
Track quality 100.0 %
Test CRC A90F14DA
Copy CRC A90F14DA
Track not present in AccurateRip database
Copy OK
Track 10
Filename E:\EACrips\10 Alakorô.wav
Pre-gap length 0:00:00.50
Peak level 100.0 %
Extraction speed 6.3 X
Track quality 100.0 %
Test CRC 67FF3639
Copy CRC 67FF3639
Track not present in AccurateRip database
Copy OK
Track 11
Filename E:\EACrips\11 Tristeza não.wav
Peak level 96.6 %
Extraction speed 5.5 X
Track quality 100.0 %
Test CRC C0F1560C
Copy CRC C0F1560C
Track not present in AccurateRip database
Copy OK
None of the tracks are present in the AccurateRip database
No errors occurred
End of status report
---- CUETools DB Plugin V2.1.4
[CTDB TOCID: NLPlpZAYcldQjaUjYjlIphr0Sgk-] found
Submit result: already submitted
Track | CTDB Status
1 | (1/1) Accurately ripped
2 | (1/1) Accurately ripped
3 | (1/1) Accurately ripped
4 | (1/1) Accurately ripped
5 | (1/1) Accurately ripped
6 | (1/1) Accurately ripped
7 | (1/1) Accurately ripped
8 | (1/1) Accurately ripped
9 | (1/1) Accurately ripped
10 | (1/1) Accurately ripped
11 | (1/1) Accurately ripped
==== Log checksum E1C906CA6037EE173D81E9B0048D4E77CD1CFF79443AC02BF04511DDFC8A0A96 ====
 
.cue
REM GENRE "Vanguarda paulistana"
REM DATE 2014
REM DISCID 870B8E0B
REM COMMENT "ExactAudioCopy v1.0b3"
PERFORMER "Metá Metá"
TITLE "MetaL MetaL"
FILE "01. Exu.wav" WAVE
TRACK 01 AUDIO
TITLE "Exu"
PERFORMER "Metá Metá"
INDEX 01 00:00:00
TRACK 02 AUDIO
TITLE "Orunmila"
PERFORMER "Metá Metá"
INDEX 00 01:48:45
FILE "02. Orunmila.wav" WAVE
INDEX 01 00:00:00
FILE "03. Man Feriman.wav" WAVE
TRACK 03 AUDIO
TITLE "Man Feriman"
PERFORMER "Metá Metá"
INDEX 01 00:00:00
FILE "04. Cobra rasteira.wav" WAVE
TRACK 04 AUDIO
TITLE "Cobra rasteira"
PERFORMER "Metá Metá"
INDEX 01 00:00:00
TRACK 05 AUDIO
TITLE "São Jorge"
PERFORMER "Metá Metá"
INDEX 00 04:30:34
FILE "05. São Jorge.wav" WAVE
INDEX 01 00:00:00
TRACK 06 AUDIO
TITLE "Oya"
PERFORMER "Metá Metá"
INDEX 00 03:34:15
FILE "06. Oya.wav" WAVE
INDEX 01 00:00:00
TRACK 07 AUDIO
TITLE "São Paulo no Shaking"
PERFORMER "Metá Metá"
INDEX 00 05:23:40
FILE "07. São Paulo no Shaking.wav" WAVE
INDEX 01 00:00:00
TRACK 08 AUDIO
TITLE "Logun"
PERFORMER "Metá Metá"
INDEX 00 03:55:10
FILE "08. Logun.wav" WAVE
INDEX 01 00:00:00
FILE "09. Rainha das cabeças.wav" WAVE
TRACK 09 AUDIO
TITLE "Rainha das cabeças"
PERFORMER "Metá Metá"
INDEX 01 00:00:00
TRACK 10 AUDIO
TITLE "Alakorô"
PERFORMER "Metá Metá"
INDEX 00 03:50:74
FILE "10. Alakorô.wav" WAVE
INDEX 01 00:00:00
FILE "11. Tristeza não.wav" WAVE
TRACK 11 AUDIO
TITLE "Tristeza não"
PERFORMER "Metá Metá"
INDEX 01 00:00:00
 
[2016, JazzVillage / JV 570122] ∘ CD "MM3"

time 00.40.33

01. Três amigos (04:12)
02. Angoulême (02:02)
03. Imagem do amor (05:57)
04. Mano Légua (02:45)
05. Angolana (04:03)
06. Corpo vão (03:22)
07. Osanyin (04:43)
08. Toque certeiro (04:10)
09. Oba Koso (09:23)
 
Участники

Juçara Marçal vocals / composer
Marcelo Cabral bass / arrangements
Thiago França saxophone / composer
Kiko Dinucci vocals / guitar / composer
Sérgio Machado drums / arrangements / composer
 
log
Exact Audio Copy V1.3 from 2. September 2016
EAC extraction logfile from 26. October 2016, 15:38
Meta Meta / Mm3
Used drive : ATAPI iHBS112 2 Adapter: 1 ID: 1
Read mode : Secure
Utilize accurate stream : Yes
Defeat audio cache : Yes
Make use of C2 pointers : No
Read offset correction : 6
Overread into Lead-In and Lead-Out : No
Fill up missing offset samples with silence : Yes
Delete leading and trailing silent blocks : No
Null samples used in CRC calculations : Yes
Used interface : Native Win32 interface for Win NT & 2000
Gap handling : Appended to previous track
Used output format : User Defined Encoder
Selected bitrate : 128 kBit/s
Quality : High
Add ID3 tag : No
Command line compressor : C:\Program Files (x86)\Exact Audio Copy\Flac\flac.exe
Additional command line options : -8 -V -T "ARTIST=%artist%" -T "TITLE=%title%" -T "ALBUM=%albumtitle%" -T "DATE=%year%" -T "TRACKNUMBER=%tracknr%" -T "GENRE=%genre%" -T "PERFORMER=%albuminterpret%" -T "COMPOSER=%composer%" -T "ALBUMARTIST=%albumartist%" -T "DISCNUMBER=%cdnumber%" -T "TOTALDISCS=%totalcds%" -T "TOTALTRACKS=%numtracks%" -T "COMMENT=EAC Secure Mode, Test & Copy, AccurateRip, FLAC -8" %source% -o %dest%
TOC of the extracted CD
Track | Start | Length | Start sector | End sector
---------------------------------------------------------
1 | 0:00.00 | 4:11.39 | 0 | 18863
2 | 4:11.39 | 2:01.10 | 18864 | 27948
3 | 6:12.49 | 5:56.56 | 27949 | 54704
4 | 12:09.30 | 2:44.68 | 54705 | 67072
5 | 14:54.23 | 4:02.57 | 67073 | 85279
6 | 18:57.05 | 3:21.23 | 85280 | 100377
7 | 22:18.28 | 4:42.57 | 100378 | 121584
8 | 27:01.10 | 4:09.17 | 121585 | 140276
9 | 31:10.27 | 9:22.10 | 140277 | 182436
Track 1
Filename D:\DL\Meta Meta - MM3 (2016] [FLAC]\01 - Tres Amigos.wav
Pre-gap length 0:00:02.00
Peak level 94.8 %
Extraction speed 5.2 X
Track quality 100.0 %
Test CRC 3A3A1D16
Copy CRC 3A3A1D16
Track not present in AccurateRip database
Copy OK
Track 2
Filename D:\DL\Meta Meta - MM3 (2016] [FLAC]\02 - Angouleme.wav
Peak level 95.3 %
Extraction speed 3.6 X
Track quality 99.9 %
Test CRC 16DBB658
Copy CRC 16DBB658
Track not present in AccurateRip database
Copy OK
Track 3
Filename D:\DL\Meta Meta - MM3 (2016] [FLAC]\03 - Imagem do amor.wav
Peak level 94.7 %
Extraction speed 6.3 X
Track quality 100.0 %
Test CRC 27CE8A2B
Copy CRC 27CE8A2B
Track not present in AccurateRip database
Copy OK
Track 4
Filename D:\DL\Meta Meta - MM3 (2016] [FLAC]\04 - Mano Lugua.wav
Peak level 94.4 %
Extraction speed 6.2 X
Track quality 100.0 %
Test CRC 039BD47A
Copy CRC 039BD47A
Track not present in AccurateRip database
Copy OK
Track 5
Filename D:\DL\Meta Meta - MM3 (2016] [FLAC]\05 - Angolana.wav
Peak level 94.7 %
Extraction speed 6.9 X
Track quality 100.0 %
Test CRC 763E0682
Copy CRC 763E0682
Track not present in AccurateRip database
Copy OK
Track 6
Filename D:\DL\Meta Meta - MM3 (2016] [FLAC]\06 - Corpo vao.wav
Peak level 94.9 %
Extraction speed 7.1 X
Track quality 100.0 %
Test CRC 81E48FAB
Copy CRC 81E48FAB
Track not present in AccurateRip database
Copy OK
Track 7
Filename D:\DL\Meta Meta - MM3 (2016] [FLAC]\07 - Ossanyn.wav
Peak level 94.7 %
Extraction speed 7.8 X
Track quality 100.0 %
Test CRC BCA04B99
Copy CRC BCA04B99
Track not present in AccurateRip database
Copy OK
Track 8
Filename D:\DL\Meta Meta - MM3 (2016] [FLAC]\08 - Toque certeiro.wav
Peak level 94.7 %
Extraction speed 8.0 X
Track quality 100.0 %
Test CRC 6FAE3BAE
Copy CRC 6FAE3BAE
Track not present in AccurateRip database
Copy OK
Track 9
Filename D:\DL\Meta Meta - MM3 (2016] [FLAC]\09 - Oba Kosso.wav
Peak level 94.7 %
Extraction speed 9.2 X
Track quality 100.0 %
Test CRC 0056A1EA
Copy CRC 0056A1EA
Track not present in AccurateRip database
Copy OK
None of the tracks are present in the AccurateRip database
No errors occurred
End of status report
---- CUETools DB Plugin V2.1.6
[CTDB TOCID: epClnKqcLCweCOxCpjNJKijVmuw-] found
Submit result: epClnKqcLCweCOxCpjNJKijVmuw- has been confirmed
Track | CTDB Status
1 | (3/3) Accurately ripped
2 | (3/3) Accurately ripped
3 | (3/3) Accurately ripped
4 | (3/3) Accurately ripped
5 | (3/3) Accurately ripped
6 | (3/3) Accurately ripped
7 | (3/3) Accurately ripped
8 | (3/3) Accurately ripped
9 | (3/3) Accurately ripped
==== Log checksum 53A1BC5003BAEA5D486D6C9DD8718C06635087E95C18C6A59260B5CCB820964E ====
 
.cue
REM GENRE "Vanguarda paulistana"
REM DATE 2016
REM DISCID 70098009
REM COMMENT "ExactAudioCopy v1.3"
PERFORMER "Metá Metá"
TITLE "MM3"
FILE "01. Três amigos.wav" WAVE
TRACK 01 AUDIO
TITLE "Três amigos"
PERFORMER "Metá Metá"
REM COMPOSER "Rodrigo Campos / Thiago França / Sergio Machado"
INDEX 01 00:00:00
FILE "02. Angoulême.wav" WAVE
TRACK 02 AUDIO
TITLE "Angoulême"
PERFORMER "Metá Metá"
REM COMPOSER "Juçara Marçal / Thiago França / Kiko Dinucci"
INDEX 01 00:00:00
FILE "03. Imagem do amor.wav" WAVE
TRACK 03 AUDIO
TITLE "Imagem do amor"
PERFORMER "Metá Metá"
REM COMPOSER "Kiko Dinucci / Rodrigo Campos"
INDEX 01 00:00:00
FILE "04. Mano Légua.wav" WAVE
TRACK 04 AUDIO
TITLE "Mano Légua"
PERFORMER "Metá Metá"
REM COMPOSER "Juçara Marçal / Kiko Dinucci"
INDEX 01 00:00:00
FILE "05. Angolana.wav" WAVE
TRACK 05 AUDIO
TITLE "Angolana "
PERFORMER "Metá Metá"
REM COMPOSER "Juçara Marçal / Thiago França / Kiko Dinucci"
INDEX 01 00:00:00
FILE "06. Corpo vão.wav" WAVE
TRACK 06 AUDIO
TITLE "Corpo vão"
PERFORMER "Metá Metá"
REM COMPOSER "Juçara Marçal / Thiago França / Kiko Dinucci"
INDEX 01 00:00:00
FILE "07. Osanyin.wav" WAVE
TRACK 07 AUDIO
TITLE "Osanyin"
PERFORMER "Metá Metá"
REM COMPOSER "Kiko Dinucci"
INDEX 01 00:00:00
FILE "08. Toque certeiro.wav" WAVE
TRACK 08 AUDIO
TITLE "Toque certeiro"
PERFORMER "Metá Metá"
REM COMPOSER "Kiko Dinucci / Siba"
INDEX 01 00:00:00
FILE "09. Oba koso.wav" WAVE
TRACK 09 AUDIO
TITLE "Oba koso "
PERFORMER "Metá Metá"
REM COMPOSER "Traditional"
INDEX 01 00:00:00

19.05.2017, обновление: добавил новый (2016 года) альбом "MM3", группы Metá Metá.
в остальных файлах тоже произошли некоторые изменения.
20:02
367
Нет комментариев. Ваш будет первым!