Вы используете незарегистрированную версию компонента "Вкладки"!

Поиск

(Tzadik, Free Jazz, Avant-Garde) [CD] Blue Buddha (Dave Douglas, Bill Laswell, Louis Belogenis, Tyshawn Sorey) - Blue Buddha - 2015, FLAC (tracks+.cue), lossless

(Tzadik, Free Jazz, Avant-Garde) [CD] Blue Buddha (Dave Douglas, Bill Laswell, Louis Belogenis, Tyshawn Sorey) - Blue Buddha - 2015, FLAC (tracks+.cue), lossless
Треклист:
Blue Buddha
Жанр: Free Jazz, Avant-Garde
Страна-производитель диска: USA
Год издания: 2015
Издатель (лейбл): Tzadik
Номер по каталогу: TZ 4010
Аудиокодек: FLAC (*.flac)
Тип рипа: tracks+.cue
Битрейт аудио: lossless
Продолжительность: 53:17
Источник (релизер): спасибо jonzaleg
Наличие сканов: нет
Треклист:
01. Purification
02. Double Dorje
03. Renunciation
04. Truth of Cessation
05. Wrathful Compassion
06. Diamond Vehicle
07. Lineage
 
Лог создания рипа
Exact Audio Copy V1.0 beta 4 from 7. December 2014
EAC extraction logfile from 22. December 2015, 21:58
Blue Buddha / Blue Buddha
Used drive : MATSHITABD-CMB UJ160 Adapter: 1 ID: 0
Read mode : Secure
Utilize accurate stream : Yes
Defeat audio cache : Yes
Make use of C2 pointers : No
Read offset correction : 103
Overread into Lead-In and Lead-Out : No
Fill up missing offset samples with silence : Yes
Delete leading and trailing silent blocks : No
Null samples used in CRC calculations : Yes
Used interface : Native Win32 interface for Win NT & 2000
Gap handling : Appended to previous track
Used output format : User Defined Encoder
Selected bitrate : 1024 kBit/s
Quality : High
Add ID3 tag : No
Command line compressor : C:\Program Files (x86)\Exact Audio Copy\FLAC\FLAC.EXE
Additional command line options : -8 -V -T "ARTIST=%artist%" -T "TITLE=%title%" -T "ALBUM=%albumtitle%" -T "DATE=%year%" -T "TRACKNUMBER=%tracknr%" -T "GENRE=%genre%" -T "PERFORMER=%albuminterpret%" -T "COMPOSER=%composer%" %haslyrics%--tag-from-file=LYRICS="%lyricsfile%"%haslyrics% -T "ALBUMARTIST=%albumartist%" -T "DISCNUMBER=%cdnumber%" -T "TOTALDISCS=%totalcds%" -T "TOTALTRACKS=%numtracks%" -T "COMMENT=%comment%" %source% -o %dest%
TOC of the extracted CD
Track | Start | Length | Start sector | End sector
---------------------------------------------------------
1 | 0:00.00 | 12:14.09 | 0 | 55058
2 | 12:14.09 | 5:29.02 | 55059 | 79735
3 | 17:43.11 | 8:11.24 | 79736 | 116584
4 | 25:54.35 | 9:40.38 | 116585 | 160122
5 | 35:34.73 | 3:54.00 | 160123 | 177672
6 | 39:28.73 | 6:54.70 | 177673 | 208792
7 | 46:23.68 | 6:53.64 | 208793 | 239831
Track 1
Filename C:\Rips\Blue Buddha - 2015 - Blue Buddha\01 Purification.wav
Pre-gap length 0:00:02.00
Peak level 100.0 %
Extraction speed 1.8 X
Track quality 100.0 %
Test CRC 330F4AFC
Copy CRC 330F4AFC
Accurately ripped (confidence 2) [401E97E6] (AR v2)
Copy OK
Track 2
Filename C:\Rips\Blue Buddha - 2015 - Blue Buddha\02 Double Dorje.wav
Peak level 99.3 %
Extraction speed 1.8 X
Track quality 99.9 %
Test CRC 953EF867
Copy CRC 953EF867
Accurately ripped (confidence 2) [ECC77B11] (AR v2)
Copy OK
Track 3
Filename C:\Rips\Blue Buddha - 2015 - Blue Buddha\03 Renunciation.wav
Peak level 100.0 %
Extraction speed 2.3 X
Track quality 100.0 %
Test CRC 62063ABA
Copy CRC 62063ABA
Accurately ripped (confidence 2) [FD6836DD] (AR v2)
Copy OK
Track 4
Filename C:\Rips\Blue Buddha - 2015 - Blue Buddha\04 Truth of Cessation.wav
Peak level 100.0 %
Extraction speed 2.6 X
Track quality 100.0 %
Test CRC F0F976A7
Copy CRC F0F976A7
Accurately ripped (confidence 2) [C2310898] (AR v2)
Copy OK
Track 5
Filename C:\Rips\Blue Buddha - 2015 - Blue Buddha\05 Wrathful Compassion.wav
Peak level 100.0 %
Extraction speed 2.6 X
Track quality 100.0 %
Test CRC B768A355
Copy CRC B768A355
Accurately ripped (confidence 2) [3D2E6487] (AR v2)
Copy OK
Track 6
Filename C:\Rips\Blue Buddha - 2015 - Blue Buddha\06 Diamond Vehicle.wav
Peak level 100.0 %
Extraction speed 2.8 X
Track quality 100.0 %
Test CRC FE95552A
Copy CRC FE95552A
Accurately ripped (confidence 2) [8339D597] (AR v2)
Copy OK
Track 7
Filename C:\Rips\Blue Buddha - 2015 - Blue Buddha\07 Lineage.wav
Peak level 98.7 %
Extraction speed 3.0 X
Track quality 100.0 %
Test CRC 7F09156E
Copy CRC 7F09156E
Accurately ripped (confidence 2) [AFEAFC63] (AR v2)
Copy OK
All tracks accurately ripped
No errors occurred
End of status report
---- CUETools DB Plugin V2.1.4
[CTDB TOCID: ZjgwzRMKGkSVqVnPmkytGZRe_6I-] found
Submit result: ZjgwzRMKGkSVqVnPmkytGZRe_6I- has been confirmed
Track | CTDB Status
1 | (4/4) Accurately ripped
2 | (4/4) Accurately ripped
3 | (4/4) Accurately ripped
4 | (4/4) Accurately ripped
5 | (4/4) Accurately ripped
6 | (4/4) Accurately ripped
7 | (4/4) Accurately ripped
==== Log checksum 25E1DCC672337A13E9ABE6B0CFD2F03891EA23ACB28914F8BCA52DCDD1898468 ====
 
Содержание индексной карты (.CUE)
REM GENRE Jazz
REM DATE 2015
REM DISCID 5D0C7D07
REM COMMENT "ExactAudioCopy v1.0b4"
PERFORMER "Blue Buddha"
TITLE "Blue Buddha"
FILE "01 Purification.wav" WAVE
TRACK 01 AUDIO
TITLE "Purification"
PERFORMER "Blue Buddha"
FLAGS DCP
INDEX 01 00:00:00
FILE "02 Double Dorje.wav" WAVE
TRACK 02 AUDIO
TITLE "Double Dorje"
PERFORMER "Blue Buddha"
FLAGS DCP
INDEX 01 00:00:00
FILE "03 Renunciation.wav" WAVE
TRACK 03 AUDIO
TITLE "Renunciation"
PERFORMER "Blue Buddha"
FLAGS DCP
INDEX 01 00:00:00
FILE "04 Truth of Cessation.wav" WAVE
TRACK 04 AUDIO
TITLE "Truth of Cessation"
PERFORMER "Blue Buddha"
FLAGS DCP
INDEX 01 00:00:00
FILE "05 Wrathful Compassion.wav" WAVE
TRACK 05 AUDIO
TITLE "Wrathful Compassion"
PERFORMER "Blue Buddha"
FLAGS DCP
INDEX 01 00:00:00
FILE "06 Diamond Vehicle.wav" WAVE
TRACK 06 AUDIO
TITLE "Diamond Vehicle"
PERFORMER "Blue Buddha"
FLAGS DCP
INDEX 01 00:00:00
FILE "07 Lineage.wav" WAVE
TRACK 07 AUDIO
TITLE "Lineage"
PERFORMER "Blue Buddha"
FLAGS DCP
INDEX 01 00:00:00
 
Об альбоме
Blue Buddha is a special collective group consisting of Dave Douglas on trumpet, Bill Laswell on electric bass, Louie Belogenis on tenor saxophone and Tyshawn Sorey on drums. The music was recorded live in the studio without edits or overdubs and that sense of "without a net" excitement pervades the disc. This group plays spiritual jazz of a unique nature beginning with “Purification” which is spacious, with the saxophone playing off against the trumpet and disjointed percussion. The music takes a long time developing but the payoff is well worth it with excellent drumming and cries of saxophone and trumpet. Belogenis plays some raw and rending saxophone to open “Double Dorje” and Sorey responds with open percussion, very free and unfettered with a Spiritual Unity feel. There is some really great saxophone and drum interplay, making for a wonderful match of musicians. “Truth of Cessation” has spacious breathy trumpet, playing quiet long breaths and longing peals of saxophone responding followed by open ended drumming and Laswell’s enveloping soundscape. Trumpet in free space sounding confident and making a statement, the kind of music Douglas used to make with groups like the Tiny Bell Trio. “Wrathful Compassion” is the band at its most ferocious and it is an absolute thrill ride from start to finish. The full group comes out immediately playing fast and hard, making for a very exciting free jazz sound that is going for broke developing a swirling a mass of extraordinary sound, moving into sensory overload. The trumpet and saxophone are absolutely scalding while the bass and drums manhandle the rhythm. Bruised deft drums and baying horns give a haunted air to “Diamond Vehicle” followed by hollow sounding electric bass. Beats of trumpet and rough grained sandpaper saxophone, bubbling bass percolate before things really start to move. Powerful jabs and peals of trumpet engage back and forth with Belogenis’ unrestrained saxophone. He has an amazing free sound that recalls Pharoah Sanders at times. Laswell’s supportive bass has an unusual sound throughout the record, buoyant and cavernous while Sorey’s facile drumming is fascinating throughout. “Lineage” ends the album with saxophone calling out with bare supplication, like a humble prayer. Gong like cymbals add to the spiritual feeling, delving into deep meditative thought and the bringing forth of hopes and dreams. Sorey gets more aggressive, again driving excellent drum and saxophone interaction. They move faster and more unfettered, reaching and digging in deeper and propelling themselves higher, for a superb conclusion. This music has a sacred vibe to it that runs from the great avant garde jazz of the 1960’s through to today. The music is luminous and open hearted, imposing yet quite accessible.
 
Состав
Louie Belogenis - tenor saxophone
Dave Douglas - trumpet
Bill Laswell - bass
Tyshawn Sorey - drums
По всем вопросам пишите личное сообщение пользователю M0p94ok.
17:43
153
Нет комментариев. Ваш будет первым!