Поиск

(Trumpet / Contemporary Jazz / Post Bop / Flamenco) Raynald Colom - Evocación (Evocacion) - 2009, FLAC (tracks+.cue) lossless

Треклист:
Raynald Colom - Evocación
Жанр: Trumpet / Contemporary Jazz / Post Bop / Flamenco
Страна-производитель диска: Spain
Год издания диска: 2009
Издатель (лейбл): Adlib Arts
Номер по каталогу: 002
Страна: France / Spain
Аудио кодек: FLAC (*.flac)
Тип рипа: tracks+.cue
Битрейт аудио: lossless
Продолжительность: 59:25
Источник (релизер): what.cd (plancton)
Наличие сканов в содержимом раздачи: нет
Треклист:
1. Evocación #1 10:13
2. Toulose 5:31
3. Intro De Ida 2:37
4. De Ida 4:22
5. Y Vuelta 4:59
6. Zyriab 8:23
7. Sanctuary 8:11
8. Como El Cielo Las Estrellas 3:48
9. Evocación #2 11:21
 
Лог создания рипа
Exact Audio Copy V0.99 prebeta 5 from 4. May 2009
EAC extraction logfile from 8. August 2010, 11:04
Raynald Colom / Evocacion
Used drive : HL-DT-STDVD-ROM GDR8162B Adapter: 0 ID: 0
Read mode : Secure
Utilize accurate stream : Yes
Defeat audio cache : Yes
Make use of C2 pointers : No
Read offset correction : 102
Overread into Lead-In and Lead-Out : No
Fill up missing offset samples with silence : Yes
Delete leading and trailing silent blocks : No
Null samples used in CRC calculations : No
Used interface : Native Win32 interface for Win NT & 2000
Gap handling : Appended to previous track
Used output format : User Defined Encoder
Selected bitrate : 320 kBit/s
Quality : High
Add ID3 tag : No
Command line compressor : C:\Archivos de programa\Exact Audio Copy\Flac\flac.exe
Additional command line options : -V -8 -T "artist=%a" -T "title=%t" -T "album=%g" -T "date=%y" -T "tracknumber=%n" -T "genre=%m" %s
TOC of the extracted CD
Track | Start | Length | Start sector | End sector
---------------------------------------------------------
1 | 0:00.00 | 10:12.55 | 0 | 45954
2 | 10:12.55 | 5:31.23 | 45955 | 70802
3 | 15:44.03 | 2:37.27 | 70803 | 82604
4 | 18:21.30 | 4:22.24 | 82605 | 102278
5 | 22:43.54 | 4:59.16 | 102279 | 124719
6 | 27:42.70 | 8:22.68 | 124720 | 162437
7 | 36:05.63 | 8:10.50 | 162438 | 199237
8 | 44:16.38 | 3:47.56 | 199238 | 216318
9 | 48:04.19 | 11:21.13 | 216319 | 267406
Track 1
Filename F:\Musica\@@@@@Upload\Raynald Colom - Evocaciуn (FLAC)\Evocacion - 01 - Evocaciуn #1.wav
Pre-gap length 0:00:02.00
Peak level 96.9 %
Track quality 100.0 %
Test CRC E2AAFDFD
Copy CRC E2AAFDFD
Track not present in AccurateRip database
Copy OK
Track 2
Filename F:\Musica\@@@@@Upload\Raynald Colom - Evocaciуn (FLAC)\Evocacion - 02 - Toulouse.wav
Peak level 94.0 %
Track quality 100.0 %
Test CRC 95AEAD1B
Copy CRC 95AEAD1B
Track not present in AccurateRip database
Copy OK
Track 3
Filename F:\Musica\@@@@@Upload\Raynald Colom - Evocaciуn (FLAC)\Evocacion - 03 - Intro de Ida.wav
Peak level 63.8 %
Track quality 100.0 %
Test CRC ED67D710
Copy CRC ED67D710
Track not present in AccurateRip database
Copy OK
Track 4
Filename F:\Musica\@@@@@Upload\Raynald Colom - Evocaciуn (FLAC)\Evocacion - 04 - De Ida.wav
Peak level 88.9 %
Track quality 99.9 %
Test CRC 9FFFFB1A
Copy CRC 9FFFFB1A
Track not present in AccurateRip database
Copy OK
Track 5
Filename F:\Musica\@@@@@Upload\Raynald Colom - Evocaciуn (FLAC)\Evocacion - 05 - De Vuelta.wav
Peak level 92.5 %
Track quality 99.9 %
Test CRC 40A0AE98
Copy CRC 40A0AE98
Track not present in AccurateRip database
Copy OK
Track 6
Filename F:\Musica\@@@@@Upload\Raynald Colom - Evocaciуn (FLAC)\Evocacion - 06 - Zyriab.wav
Peak level 99.8 %
Track quality 100.0 %
Test CRC 699782B3
Copy CRC 699782B3
Track not present in AccurateRip database
Copy OK
Track 7
Filename F:\Musica\@@@@@Upload\Raynald Colom - Evocaciуn (FLAC)\Evocacion - 07 - Sanctuary.wav
Peak level 94.0 %
Track quality 100.0 %
Test CRC 53606310
Copy CRC 53606310
Track not present in AccurateRip database
Copy OK
Track 8
Filename F:\Musica\@@@@@Upload\Raynald Colom - Evocaciуn (FLAC)\Evocacion - 08 - Como El Cielo, Las Estrellas.wav
Peak level 96.0 %
Track quality 100.0 %
Test CRC 06BEA88A
Copy CRC 06BEA88A
Track not present in AccurateRip database
Copy OK
Track 9
Filename F:\Musica\@@@@@Upload\Raynald Colom - Evocaciуn (FLAC)\Evocacion - 09 - Evocaciуn #2.wav
Peak level 94.9 %
Track quality 100.0 %
Test CRC 7DBFFFCD
Copy CRC 7DBFFFCD
Track not present in AccurateRip database
Copy OK
None of the tracks are present in the AccurateRip database
No errors occurred
End of status report
 
Содержание индексной карты (.CUE)
REM GENRE "Trumpet / Contemporary Jazz / Bost Bop / Flamenco"
REM DATE 2009
REM DISCID 820DED09
REM COMMENT "ExactAudioCopy v0.99pb5"
PERFORMER "Raynald Colom"
TITLE "Evocacion"
FILE "01 - Evocacion #1.wav" WAVE
TRACK 01 AUDIO
TITLE "Evocacion #1"
PERFORMER "Raynald Colom"
INDEX 01 00:00:00
FILE "02 - Toulouse.wav" WAVE
TRACK 02 AUDIO
TITLE "Toulouse"
PERFORMER "Raynald Colom"
INDEX 01 00:00:00
FILE "03 - Intro De Ida.wav" WAVE
TRACK 03 AUDIO
TITLE "Intro De Ida"
PERFORMER "Raynald Colom"
INDEX 01 00:00:00
FILE "04 - De Ida.wav" WAVE
TRACK 04 AUDIO
TITLE "De Ida"
PERFORMER "Raynald Colom"
INDEX 01 00:00:00
FILE "05 - Y Vuelta.wav" WAVE
TRACK 05 AUDIO
TITLE "Y Vuelta"
PERFORMER "Raynald Colom"
INDEX 01 00:00:00
FILE "06 - Zyriab.wav" WAVE
TRACK 06 AUDIO
TITLE "Zyriab"
PERFORMER "Raynald Colom"
INDEX 01 00:00:00
FILE "07 - Sanctuary.wav" WAVE
TRACK 07 AUDIO
TITLE "Sanctuary"
PERFORMER "Raynald Colom"
INDEX 01 00:00:00
FILE "08 - Como El Cielo, Las Estrellas.wav" WAVE
TRACK 08 AUDIO
TITLE "Como El Cielo, Las Estrellas"
PERFORMER "Raynald Colom"
INDEX 01 00:00:00
FILE "09 - Evocacion #2.wav" WAVE
TRACK 09 AUDIO
TITLE "Evocacion #2"
PERFORMER "Raynald Colom"
INDEX 01 00:00:00
 
Скриншот спектра частот
Доп. информация: Y Vuelta
 
Состав
Raynald Colom — trompeta
Juan Gomez Chicuelo — guitarra
Aruan Ortiz — piano
Omer Avital — contrabajo
Eric McPherson — batería
Roger Blavia — percusión
Invitados Especiales:
Rosario Guerrero La Tremendita — cante
Gabriel Amargant — saxo soprano y tenor
Isaac Vigueras — cajón
Marcelo Mercadante — bandoneón
21:48
327
Нет комментариев. Ваш будет первым!