Поиск

(Trombone) BassDrumBone (M.Helias-G.Hemingway-R.Anderson) - Hense The Reason - 1997, FLAC (image + .cue), lossless

(Trombone) BassDrumBone (M.Helias-G.Hemingway-R.Anderson) - Hense The Reason - 1997, FLAC (image + .cue), lossless
Треклист:
BassDrumBone (M.Helias-G.Hemingway-R.Anderson) - Hense The Reason
Страна: USA
Жанр: Trombone
Год выпуска: 1997
Формат: FLAC (image + .cue)
Битрейт аудио: lossless
Трэклист:
1. Hence The Real Reason 05:14
2. For Don C 08:47
3. Fictionary 06:24
4. Sambali 08:33
5. Moto Proto 00:41
6. Speak Again Brother 10:23
7. The Disappearing Afternoon 08:22
8. Lips Apart 09:15
9. When Zweeble Walked By 06:40
Доп. информация:
Трио:
Mark Helias bass
Gerry Hemingway drums
Ray Anderson trombone
Bones#4
Продолжение темы моих любимых тромбонных альбомов.
 
Предыдущие здесь
Трио в котором нет ничего лишнего, а только один мощный сгусток энергии, сыгранных годами музыкантов.
Вот здесь пара ссылок для тех, кто хочет побольше знать (и даже посмотреть в очень приличном качестве) об этом проекте
 
лог
Exact Audio Copy V0.99 prebeta 3 from 28. July 2007
EAC extraction logfile from 3. May 2008, 12:41
BassDrumBone / Hence The Reason
Used drive : HL-DT-STDVDRAM GSA-4165B Adapter: 1 ID: 0
Read mode : Secure
Utilize accurate stream : Yes
Defeat audio cache : Yes
Make use of C2 pointers : No
Read offset correction : 667
Overread into Lead-In and Lead-Out : No
Fill up missing offset samples with silence : Yes
Delete leading and trailing silent blocks : No
Null samples used in CRC calculations : No
Used interface : Native Win32 interface for Win NT & 2000
Used output format : User Defined Encoder
Selected bitrate : 768 kBit/s
Quality : High
Add ID3 tag : No
Command line compressor : C:\Program Files\Exact Audio Copy\FLAC\FLAC.EXE
Additional command line options : -6 -V -T "ARTIST=%a" -T "TITLE=%t" -T "ALBUM=%g" -T "DATE=%y" -T "TRACKNUMBER=%n" -T "GENRE=%m" -T "COMMENT=%e" %s -o %d
TOC of the extracted CD
Track | Start | Length | Start sector | End sector
---------------------------------------------------------
1 | 0:00.00 | 5:17.12 | 0 | 23786
2 | 5:17.12 | 8:49.55 | 23787 | 63516
3 | 14:06.67 | 6:27.10 | 63517 | 92551
4 | 20:34.02 | 8:36.33 | 92552 | 131284
5 | 29:10.35 | 0:41.00 | 131285 | 134359
6 | 29:51.35 | 10:24.05 | 134360 | 181164
7 | 40:15.40 | 8:24.45 | 181165 | 219009
8 | 48:40.10 | 9:16.72 | 219010 | 260781
9 | 57:57.07 | 6:40.22 | 260782 | 290803
Range status and errors
Selected range
Filename C:\Family_Folder\Torrent\0_My_Music\BassDrumBone (M.Helias-G.Hemingway-R.Anderson) - Hense The Reason (1997)\BassDrumBone - Hence The Reason.wav
Peak level 98.8 %
Range quality 100.0 %
Copy CRC D1A59DF3
Copy OK
No errors occurred
AccurateRip summary
Track 1 accurately ripped (confidence 1) [9D7C62F8]
Track 2 accurately ripped (confidence 1) [BB401E2F]
Track 3 accurately ripped (confidence 1) [E7860716]
Track 4 accurately ripped (confidence 1) [D51B74A6]
Track 5 accurately ripped (confidence 1) [9FC689B7]
Track 6 accurately ripped (confidence 1) [1E7B4602]
Track 7 accurately ripped (confidence 1) [851C5103]
Track 8 accurately ripped (confidence 1) [4282E77C]
Track 9 accurately ripped (confidence 1) [E20D267E]
All tracks accurately ripped
End of status report
Ну в завершение как всегда - коментарии более чем прИветствуются.
P.S. Диск рипнут с оригинала - без обложек.
Попытаюсь продолжить тему.
Приватный:
Нет (DHT включён)
Размер:
350.68 Мб (367,719,420 байт) » файлов: 6
Участники:
0 раздают, 0 качают (0 участников всего)
Внешние участники:
1 раздают, 0 качают (1 участников всего) [ Обновить ]
Есть вопросы - пишите личное сообщение пользователю M0p94ok.
00:53
45
Нет комментариев. Ваш будет первым!