Вы используете незарегистрированную версию компонента "Вкладки"!

Поиск

[TR24][SM][OF] Emie R Roussel Trio - Quantum - 2014 (Contemporary Jazz)

[TR24][SM][OF] Emie R Roussel Trio - Quantum - 2014 (Contemporary Jazz)
Треклист:
·
·
·EMIE R ROUSSEL TRIO
QUANTUM•Жанр: Contemporary Jazz
Носитель: Official Digital Download
Год издания диска: 2014
Издатель(лейбл): Effendi Records
Продолжительность: 01:03:56
Наличие сканов в содержимом раздачи: front cover
Контейнер: FLAC (*.flac)
Разрядность: 24/44,1
Количество каналов: 2.0
Формат: tracks
Источник: qobuz.com
Pелизер: WEB (thanks to the original customer)•
FND139
 
Треклист
01 Snooze 5:04
02 Quantum 8:16
03 Club 9:00
04 Ipomée 6:19
05 Les Deux Saisons 6:40
06 Funambule 7:34
07 Marée Haute 8:42
08 U-Turn 7:51
09 De Loin Et De Près 4:30
 
Состав
Emie Rioux-Roussel piano, Rhodes, compositions
Nicolas Bédard double bass, electric bass
Dominic Cloutier drums
 
Dynamic Range Meter
foobar2000 1.2.6 / Dynamic Range Meter 1.1.1
log date: 2015-03-29 03:15:05
--------------------------------------------------------------------------------
Analyzed: Emie R Roussel Trio / Quantum
--------------------------------------------------------------------------------
DR Peak RMS Duration Track
--------------------------------------------------------------------------------
DR10 -0.53 dB -13.56 dB 5:04 01-Snooze
DR14 -0.53 dB -16.85 dB 8:17 02-Quantum
DR10 -0.53 dB -14.77 dB 9:00 03-Club
DR11 -0.53 dB -14.49 dB 6:19 04-Ipomee
DR9 -0.53 dB -13.59 dB 6:41 05-Les deux saisons
DR11 -0.53 dB -16.19 dB 7:35 06-Funambule
DR11 -0.53 dB -17.34 dB 8:42 07-Maree haute
DR10 -0.53 dB -14.55 dB 7:52 08-U-Turn
DR10 -0.53 dB -12.62 dB 4:30 09-De loin et de pres
--------------------------------------------------------------------------------
Number of tracks: 9
Official DR value: DR11
Samplerate: 44100 Hz
Channels: 2
Bits per sample: 24
Bitrate: 1490 kbps
Codec: FLAC
================================================================================
Any questions - support@pro-jazz.com.
Есть вопросы - support@pro-jazz.com
20:25
321
Нет комментариев. Ваш будет первым!