Поиск

[TR24][OF] Ulf & Eric Wakenius - Father And Son - 2017 (Contemporary Jazz, Guitar Jazz)

[TR24][OF] Ulf & Eric Wakenius - Father And Son - 2017 (Contemporary Jazz, Guitar Jazz)
Треклист:
Ulf & Eric Wakenius - Father And Son Формат записи/Источник записи: [TR24][OF]
Наличие водяных знаков: Нет
Год издания/переиздания диска: 2017
Жанр: Contemporary Jazz, Guitar Jazz
Издатель (лейбл): ACT Music
Продолжительность: 50:16
Наличие сканов в содержимом раздачи: Буклет PDF
Источник: WRZmusic
Магазин: qobuz.com
Треклист:
01. Intro: Birdland (Excerpt) (1:09)
02. Irish Vagabond (6:11)
03. Meine schöne Heimat / Vem kan segla förutan vind (2:56)
04. Mistral (5:25)
05. Once Upon A Time In America (3:09)
06. Paco's Delight (3:38)
07. Scarborough Fair (2:06)
08. Dodge The Dodo / When God Created The Coffee Break (3:54)
09. Eleanor Rigby (4:56)
10. Father And Son (4:23)
11. Birdland (6:45)
12. Help The Poor (5:44)
Ulf Wakenius - acoustic guitar
Eric Wakenius - acoustic guitar & vocals
Rec.: Nilento Studios, Kållered (Gothenburg), September 3, 2016.
 
 
Несколько слов на английском
The two guitarists take the opportunity on “Father And Son” to explore and to exploit these multiple possibilities to the full: “Irish Vagabond” combines full-on Irish folk music with Arabic elements. “Mistral” is rhythmically punchy, almost like a rock tune, and also has echoes of Al Di Meola. In this tune Ulf Wakenius recounts an experience he had while on tour with Youn Sun Nah. At the Avignon Festival, a powerful wind from the South “almost blew me off the stage, so I decided to write a song about it.” Their “Eleanor Rigby” is captivating; as they honour the Beatles, they achieve a sonority remarkably close to a string quartet. “Paco’s Delight” pays tribute to the unforgettable Paco de Lucía, but their Spanish flamenco technique is also imbued with the buoyancy and verve of Django Reinhardt’s Hot Club swing. With their arrangement of the jazz-fusion classic “Birdland”, Ulf and Eric Wakenius remember another of the pantheon of musical immortals, Joe Zawinul. And finally, Eric Wakenius takes the listener by surprise as a highly persuasive singer in the album's title track by Cat Stevens, which deals with a tricky father-son relationship. “Eric and I are luckier - we don't have those problems,” says Ulf Wakenius. The song also justifies its place in the selection because Cat Stevens has a Swedish mother and a close connection to Sweden.
--------------------------------------
He plays the guitar like he was born with it already in his hands, was how John McLaughlin once praised Ulf Wakenius. So as a father Ulf did actually place a guitar in the crib of his baby son Eric or not…here they now are as a duo in Father And Son . This personal album is a virtuoso conversation in the art of contemporary jazz guitar. They can swing, or play gentle ballads together, or go extrovert and percussive. They can tell stories from far-off lands, or sometimes from their Swedish homeland…Ulf and Eric Wakenius have a sensitivity and a sense of atmosphere which creates magical guitar moments.

Контейнер: FLAC (*.flac)
Тип рипа: tracks
Разрядность: 24/96
Формат: PCM
Количество каналов: 2.0
 
 
Лог проверки качества
foobar2000 1.3.9 / Dynamic Range Meter 1.1.1
log date: 2018-08-01 15:45:00
--------------------------------------------------------------------------------
Analyzed: Ulf & Eric Wakenius / Father And Son
--------------------------------------------------------------------------------
DR         Peak         RMS     Duration Track
--------------------------------------------------------------------------------
DR9       -0.64 dB   -12.46 dB      1:09 01-Intro: Birdland (Excerpt)
DR8       -0.81 dB   -11.58 dB      6:11 02-Irish Vagabond
DR10      -0.82 dB   -15.49 dB      2:56 03-Meine schöne Heimat / Vem kan segla förutan vind
DR6       -0.81 dB   -10.11 dB      5:25 04-Mistral
DR13      -2.27 dB   -21.14 dB      3:09 05- Once Upon A Time In America
DR9       -0.81 dB   -12.38 dB      3:38 06-Paco's Delight
DR13      -1.40 dB   -18.62 dB      2:06 07-Scarborough Fair
DR9       -0.81 dB   -12.94 dB      3:54 08-Dodge The Dodo / When God Created The Coffee Break
DR11      -0.81 dB   -15.94 dB      4:56 09-Eleanor Rigby
DR8       -0.81 dB   -12.21 dB      4:23 10-Father And Son
DR8       -0.81 dB   -11.74 dB      6:45 11-Birdland
DR8       -0.81 dB   -10.85 dB      5:44 12-Help The Poor
--------------------------------------------------------------------------------
Number of tracks:  12
Official DR value: DR9
Samplerate:        96000 Hz
Channels:          2
Bits per sample:   24
Bitrate:           2723 kbps
Codec:             FLAC
================================================================================
01:47
552
Нет комментариев. Ваш будет первым!