Поиск

[TR24][OF] The Brecker Brothers - The Brecker Bros. (Remastered) - 1975/2015 (Fusion, Jazz-Funk)

[TR24][OF] The Brecker Brothers - The Brecker Bros. (Remastered) - 1975/2015 (Fusion, Jazz-Funk)
Треклист:
The Brecker Brothers - The Brecker Bros. Формат записи/Источник записи: [TR24][OF]
Наличие водяных знаков: Нет
Издание: Remastered
Год издания/переиздания диска: 1975/2015
Жанр: Fusion, Jazz-Funk
Издатель (лейбл): Arista/Legacy
Продолжительность: 45:48
Наличие сканов в содержимом раздачи: Только обложка альбома
Треклист:
01. Some Skunk Funk (5:53)
02. Sponge (4:07)
03. A Creature Of Many Faces (7:45)
04. Twilight (5:47)
05. Sneakin' Up Behind You (4:57)
06. Rocks (4:41)
07. Levitate (4:35)
08. Oh My Stars (3:17)
09. DBB (4:47)
Personnel:
Randy Brecker - vocals, acoustic & electric trumpets, flugelhorn
Michael Brecker - tenor saxophone
Will Lee, vocals - electric bass
David Sanborn - alto saxophone
Don Grolnick - keyboards
Bob Mann - guitar
Christopher Parker - drums
Harvey Mason - drums
Ralph McDonald - percussion
Rec.: Secret Sound Studios, New York City, NY, January 1975.
 
 
Об альбоме
First date for brothers from 1975. Side one is solid jazz/funk/fusion. They called it 'skunk-funk.' Tightly woven jazz funk – the first super effort from the team of Randy & Michael Brecker, whose twin-horn frontline forged a very popular sound in the mid 70s! The record may not be the most groundbreaking bit of jazz funk you'll ever own – but there's some really well-crafted numbers on the set with a strong smooth approach that still sits well after all these years, a lot more so than some of the group's later work. Titles include 'Sneakin Up Behind You', 'Rocks', 'Levitate', 'Some Skunk Funk', 'Sponge', 'A Creature Of Many Faces', and 'DBB'.

Контейнер: FLAC (*.flac)
Тип рипа: tracks
Разрядность: 24/96
Формат: PCM
Количество каналов: 2.0
 
 
Лог проверки качества
foobar2000 1.3.9 / Dynamic Range Meter 1.1.1
log date: 2017-12-08 18:29:08
--------------------------------------------------------------------------------
Analyzed: The Brecker Brother / The Brecker Bros.
--------------------------------------------------------------------------------
DR         Peak         RMS     Duration Track
--------------------------------------------------------------------------------
DR12      -0.15 dB   -13.68 dB      5:53 01-Some Skunk Funk
DR11      -0.15 dB   -13.70 dB      4:07 02-Sponge
DR12      -0.15 dB   -14.68 dB      7:45 03-A Creature Of Many Faces
DR13      -0.15 dB   -14.09 dB      5:47 04-Twilight
DR13      -0.15 dB   -14.81 dB      4:57 05-Sneakin' Up Behind You
DR12      -0.15 dB   -14.95 dB      4:41 06-Rocks
DR11      -0.15 dB   -15.66 dB      4:35 07-Levitate
DR12      -0.15 dB   -13.88 dB      3:17 08-Oh My Stars
DR13      -0.15 dB   -15.34 dB      4:47 09-DBB
--------------------------------------------------------------------------------
Number of tracks:  9
Official DR value: DR12
Samplerate:        96000 Hz
Channels:          2
Bits per sample:   24
Bitrate:           2962 kbps
Codec:             FLAC
================================================================================
Источник: highresaudio.com
04:35
738
Нет комментариев. Ваш будет первым!