Вы используете незарегистрированную версию компонента "Вкладки"!

Поиск

[TR24][OF] Thad Jones • Mel Lewis Jazz Orchestra - Monday Night (Live At The Village Vanguard) (Remastered) - 1968/2018 (Big Band)

[TR24][OF] Thad Jones • Mel Lewis Jazz Orchestra - Monday Night (Live At The Village Vanguard) (Remastered) - 1968/2018 (Big Band)
Треклист:
Thad Jones • Mel Lewis Jazz Orchestra - Monday Night (Live At The Village Vanguard) Формат записи/Источник записи: [TR24][OF]
Наличие водяных знаков: Нет
Издание: Remastered
Год издания/переиздания диска: 1968/2018
Жанр: Big Band
Издатель (лейбл): Capitol Records
Продолжительность: 42:43
Наличие сканов в содержимом раздачи: Только обложка альбома
Источник: WRZmusic
Магазин: qobuz.com
Треклист:
01. Mornin' Reverend (4:48)
02. Kids Are Pretty People (6:03)
03. St. Louise Blues (12:38)
04. The Waltz You Swang For Me (5:22)
05. Say It Softly (6:40)
06. The Second Race (7:12)
Personnel:
Thad Jones - flugelhorn
Mel Lewis - drums
Richard Williams, Danny Stiles, Bill Berry, Jimmy Nottingham - trumpet
Bob Brookmeyer, Jack Rains, Tom McIntosh, Cliff Heather - trombone
Jerome Richardson, Jerry Dodgion, Joe Farrell, Eddie Daniels, Pepper Adams - reeds
Hank Jones - piano
Richard Davis - double bass
Produced by Sonny Lester
 
 
Несколько слов на английском
The Thad Jones-Mel Lewis Orchestra was little more than a year old when this album was recorded live at the Village Vanguard, which was the band's Monday night home for every week of its existence. Jones almost single-handedly brought the big band into the modern age with this origanization. Swung hard by Mel Lewis's drums, the band sailed through the complex charges of Jones and Bob Brookmeyer with panache. Soloists include Brookmeyer, Jones, Richard Williams, Jerome Richardson and Joe Farrell. Three bonus tracks have added to the original LP, which has been remixed and mastered in 24-bit.

Контейнер: FLAC (*.flac)
Тип рипа: tracks
Разрядность: 24/192
Формат: PCM
Количество каналов: 2.0
 
Лог проверки качества
foobar2000 1.3.9 / Dynamic Range Meter 1.1.1
log date: 2018-07-22 12:42:35
--------------------------------------------------------------------------------
Analyzed: Thad Jones • Mel Lewis Jazz Orchestra / Monday Night (Live At The Village Vanguard)
--------------------------------------------------------------------------------
DR Peak RMS Duration Track
--------------------------------------------------------------------------------
DR12 -3.11 dB -18.56 dB 4:48 01-Mornin' Reverend
DR13 -2.36 dB -19.91 dB 6:03 02-Kids Are Pretty People
DR13 -1.98 dB -21.93 dB 12:38 03-St. Louise Blues
DR13 -3.15 dB -21.33 dB 5:22 04-The Waltz You Swang For Me
DR12 -3.30 dB -20.13 dB 6:40 05-Say It Softly
DR11 -3.85 dB -19.95 dB 7:12 06-The Second Race
--------------------------------------------------------------------------------
Number of tracks: 6
Official DR value: DR12
Samplerate: 192000 Hz
Channels: 2
Bits per sample: 24
Bitrate: 5598 kbps
Codec: FLAC
================================================================================
Any questions - support@pro-jazz.com.
Есть вопросы - support@pro-jazz.com
02:05
368
Нет комментариев. Ваш будет первым!