Вы используете незарегистрированную версию компонента "Вкладки"!

Поиск

[TR24][OF] Stan Getz & Laurindo Almeida - Stan Getz with Guest Artist Laurindo Almeida - 1963/2014 (Jazz, Bossa Nova, Latin Jazz, Saxophone Jazz)

[TR24][OF] Stan Getz & Laurindo Almeida - Stan Getz with Guest Artist Laurindo Almeida - 1963/2014 (Jazz, Bossa Nova, Latin Jazz, Saxophone Jazz)
Треклист:
STAN GETZWITH GUEST ARTISTLAURINDO ALMEIDA
Год издания/переиздания диска: 1963/2014
Жанр: Jazz, Bossa Nova, Latin Jazz, Saxophone Jazz
Издатель (лейбл): Verve
Продолжительность: 00:32:13
Наличие сканов: Front


01. Menina Moca (Young Lady) (5:42)
02. Once Again (Outra Vez) (6:42)
03. Winter Moon (5:19)
04. Do What You Do Do (4:35)
05. Samba Da Sahra (Sahra's Samba) (4:55)
06. Maracatu-Too (5:00)


Stan Getz – tenor saxophone
Laurindo Almeida – guitar
George Duvivier – bass
José Paulo, Luiz Parga – percussion
Dave Bailey, Edison Machado, Jose Soorez – drums
Steve Kuhn – piano (#6)
Recorded: #2, 5, 6 on March 21, 1963; #1, 3, 4 on March 22, 1963 at Webster Hall, New York City
Контейнер: FLAC (*.flac)
Тип рипа: tracks
Разрядность: 24bits / 192kHz
Количество каналов: 2.0
 
Отчёты
 
Динамический диапазон
foobar2000 1.2.2 / Замер динамического диапазона (DR) 1.1.1
Дата отчёта: 2014-11-02 22:30:00
--------------------------------------------------------------------------------
Анализ: Stan Getz / Stan Getz with Guest Artist Laurindo Almeida
--------------------------------------------------------------------------------
DR Пики RMS Продолжительность трека
--------------------------------------------------------------------------------
DR11 -0.06 дБ -14.53 дБ 5:42 ?-Menina Moca (Young Lady)
DR13 -0.92 дБ -16.72 дБ 6:42 ?-Once Again (Outra Vez)
DR12 -3.32 дБ -18.67 дБ 5:19 ?-Winter Moon
DR12 -1.40 дБ -16.04 дБ 4:35 ?-Do What You Do Do
DR12 -1.73 дБ -16.74 дБ 4:55 ?-Samba Da Sahra (Sahra's Samba)
DR12 -0.91 дБ -16.14 дБ 5:00 ?-Maracatu-Too
--------------------------------------------------------------------------------
Количество треков: 6
Реальные значения DR: DR12
Частота: 192000 Гц
Каналов: 2
Разрядность: 24
Битрейт: 5787 кбит/с
Кодек: FLAC
================================================================================
 
Скриншот спектра частот
 
Доп. информация
При скачивании, если необходимо, переименуйте папку, в которой будет находиться альбомБольшая просьба к скачавшим поддерживать раздачу! Помогайте другим, ведь вам тоже может понадобиться помощь!Не забываем говорить "Спасибо"!Комментарии приветствуются!
Stan Getz Hi-Res
Any questions - support@pro-jazz.com. Есть вопросы - support@pro-jazz.com
14:19
275
Нет комментариев. Ваш будет первым!