Поиск

[TR24][OF] Ronnie Kole Trio - New Orleans... Today - 1971/2016 (Mainstream Jazz, Cool)

[TR24][OF] Ronnie Kole Trio - New Orleans... Today - 1971/2016 (Mainstream Jazz, Cool)
Треклист:
Ronnie Kole Trio - New Orleans... Today Формат записи/Источник записи: [TR24][OF]
Наличие водяных знаков: Нет
Год издания/переиздания диска: 1971/2016
Жанр: Mainstream Jazz, Cool
Издатель (лейбл): Paula Records
Продолжительность: 33:08
Наличие сканов в содержимом раздачи: Только обложка альбома
Треклист:
01. (They Long To Be) Close To You (2:47)
02. On A Clear Day You Can See Forever (3:35)
03. Love Story (2:39)
04. Yellow Bird (2:35)
05. My Rhapsody (1:48)
06. Exodus (2:08)
07. Secret Of My Soul (2:34)
08. Great Stone Bottle (2:34)
09. Sesame Street (3:03)
10. He Ain't Heavy He's My Brother (3:40)
11. Tennessee Waltz (2:45)
12. My Sweet Lord (3:01)
Ronnie Kole Trio
Ronnie Kole - piano
Everett Link Jr. - bass
Richard Taylor - percussion
 
 
Об исполнителе (группе)
Ronnie Kole is now one of America's most legendary pianists and entertainers whose devotion to New Orleans is well documented with his induction into the New Orleans Musical Legends Park. His love-affair with the city's music is longstanding, as evidenced by this 1971 trio recording New Orleans Today.
Jazz pianist Ronnie Kole is a class act and consummate performer who is popular in both his own country and overseas. The New Orleans-based musician spends much time abroad in Europe and Asia, where his smooth sound and elegant persona lend themselves to refined venues and guest appearances with symphony orchestras. Kole is a piano man's piano man, admired by many top stars in the business, from Harry Connick Jr. to Allen Toussaint.
Born in Chicago, Kole was afflicted with heart trouble as a child, which landed him in a school for the handicapped. He received much encouragement there from the celebrities who made a point to visit. In return, Kole has become very involved in charitable and civic organizations in his professional career, such as the Easter Seal Society and the American Heart Association. He sits on more boards than there are ivory keys on the piano, and helped organize both the New Orleans Jazz Festival and the French Quarter Festival, and has made numerous appearances at both venues.
A protégé of Al Hirt, Kole began his professional career on television, gaining exposure on the Johnny Carson Show. After a stint in Las Vegas, he followed Hirt to New Orleans. Kole honed his act in Hirt's club on Bourbon Street, before opening his own club, Kole's Korner, which, along with Hirt and Pete Fountain's clubs, became a top venue to hear traditional jazz. The musician has received every conceivable award his adopted city has to offer, from a Lifetime Achievement Award to induction into the Louisiana Music Hall of Fame. He has played for presidents and the Pope, and has performed in cities all over the world.
 
 
Об альбоме (сборнике)
This album is a high-resolution digital transfer of material originating from an analogue master source. It may contain noise, distortion or other artifacts, and may also contain audio which is limited in bandwidth or dynamic range, due to the technology used at the time of its original creation. As such, it is offered as a high-resolution documentation of a historical release.

Контейнер: FLAC (*.flac)
Тип рипа: tracks
Разрядность: 24/96
Формат: PCM
Количество каналов: 2.0
 
 
Лог проверки качества
foobar2000 1.3.9 / Dynamic Range Meter 1.1.1
log date: 2018-02-08 12:25:31
--------------------------------------------------------------------------------
Analyzed: Ronnie Kole Trio / New Orleans Today
--------------------------------------------------------------------------------
DR         Peak         RMS     Duration Track
--------------------------------------------------------------------------------
DR13      -1.17 dB   -19.59 dB      2:47 01-(They Long To Be) Close To You
DR12      -1.17 dB   -17.54 dB      3:35 02-On A Clear Day You Can See Forever
DR12      -1.17 dB   -18.86 dB      2:39 03-Love Story
DR13      -1.17 dB   -16.78 dB      2:35 04-Yellow Bird
DR12      -1.17 dB   -17.60 dB      1:48 05-My Rhapsody
DR12      -1.17 dB   -15.87 dB      2:08 06-Exodus
DR12      -1.17 dB   -17.24 dB      2:34 07-Secret Of My Soul
DR14      -1.17 dB   -17.41 dB      2:34 08-Great Stone Bottle
DR13      -1.17 dB   -16.46 dB      3:03 09-Sesame Street
DR13      -1.17 dB   -17.26 dB      3:40 10-He Ain't Heavy He's My Brother
DR14      -1.17 dB   -18.44 dB      2:45 11-Tennessee Waltz
DR13      -1.17 dB   -16.82 dB      3:01 12-My Sweet Lord
--------------------------------------------------------------------------------
Number of tracks:  12
Official DR value: DR13
Samplerate:        96000 Hz
Channels:          2
Bits per sample:   24
Bitrate:           2951 kbps
Codec:             FLAC
================================================================================
Источник: hdtracks.com
09:15
538
Нет комментариев. Ваш будет первым!