Поиск

[TR24][OF] Roland Kirk with Jack McDuff - Kirk's Work - 1961/2014 (Hard Bop, Soul-Jazz)

[TR24][OF] Roland Kirk with Jack McDuff - Kirk's Work - 1961/2014 (Hard Bop, Soul-Jazz)
Треклист:
Roland Kirk with Jack McDuff - Kirk's Work Формат записи/Источник записи: [TR24][OF]
Наличие водяных знаков: Нет
Год издания/переиздания диска: 1961/2014
Жанр: Hard Bop, Soul-Jazz
Издатель(лейбл): Prestige Records
Продолжительность: 33:18
Наличие сканов в содержимом раздачи: Буклет PDF
Треклист:
01. Three For Dizzy (5:15)
02. Makin' Whoopee (5:09)
03. Funk Underneath (6:17)
04. Kirk's Work (3:57)
05. Doin' The Sixty-Eight (4:23)
06. Too Late Now (3:54)
07. The Skaters' Waltz (4:24)
Personnel:
Rahsaan Roland Kirk - flute, manzello, tenor saxophone, siren, stritch
Jack McDuff - organ
Joe Benjamin - bass
Art Taylor - drums
Rec.: Van Gelder Studio, Hackensack, NJ, July 11, 1961.
 
 
Несколько слов на английском
Roland Kirk, the amazing one-man saxophone section and sublime soloist, had yet to add "Rahsaan" to his name when he recorded his first album for Prestige in 1961. It wasn't yet quite clear to many, even people at the center of the jazz community, that Kirk's gifts went considerably beyond the ability to play three horns at once.
Gradually, it began to dawn on one and all that the man's almost superhuman energy and dedication were matched by musicianship based as firmly in tradition as in innovation. Eventually, it became possible to accept as parts of Kirk's kaleidoscopic expression those odd instruments the manzello and the strich, not to mention the nose flute and kirkbam that he added later. And what a tenor saxophonist. Kirk's Work is a milestone in the brief, brilliant career of a major artist.

Контейнер: FLAC (*.flac)
Тип рипа: tracks
Разрядность: 24/44,1
Количество каналов: 2.0
 
Лог проверки качества
foobar2000 1.3.9 / Dynamic Range Meter 1.1.1
log date: 2017-02-24 16:15:39
--------------------------------------------------------------------------------
Analyzed: Roland Kirk with Jack McDuff / Kirk's Work
--------------------------------------------------------------------------------
DR Peak RMS Duration Track
--------------------------------------------------------------------------------
DR9 0.00 dB -11.89 dB 5:15 01-Three For Dizzy
DR9 0.00 dB -11.39 dB 5:09 02-Makin' Whoopee
DR10 0.00 dB -12.76 dB 6:17 03-Funk Underneath
DR9 0.00 dB -12.03 dB 3:57 04-Kirk's Work
DR10 0.00 dB -12.18 dB 4:23 05-Doin' The Sixty-Eight
DR11 0.00 dB -13.96 dB 3:54 06-Too Late Now
DR10 0.00 dB -11.34 dB 4:24 07-The Skaters' Waltz
--------------------------------------------------------------------------------
Number of tracks: 7
Official DR value: DR10
Samplerate: 44100 Hz
Channels: 2
Bits per sample: 24
Bitrate: 1725 kbps
Codec: FLAC
================================================================================
 
Скриншот спектра частот
Источник: hdtracks.com
Приватный:
Нет (DHT включён)
Размер:
404.94 Мб (424,614,874 байт) » файлов: 12
Участники:
0 раздают, 0 качают (0 участников всего)
Внешние участники:
2 раздают, 1 качают (3 участников всего) [ Обновить ]
No seeders - write personal message to M0p94ok. Нет сидеров - пишите в личку M0p94ok.
09:04
170
Нет комментариев. Ваш будет первым!