Поиск

[TR24][OF] Ray Lema & Laurent de Wilde - Riddles - 2016 (Jazz, Post-Bop, Contemporary Jazz)

[TR24][OF] Ray Lema & Laurent de Wilde - Riddles - 2016 (Jazz, Post-Bop, Contemporary Jazz)
Ray Lema & Laurent de Wilde / Riddles
Формат записи/Источник записи: [TR24][OF]
Наличие водяных знаков: Нет
Год издания/переиздания диска: 2016
Жанр: Jazz, Post-Bop, Contemporary Jazz
Издатель (лейбл): Gazebo / One Drop
Продолжительность: 00:46:09
Наличие сканов в содержимом раздачи: Буклет PDF
Источник (релизер): 7digital
Контейнер: FLAC (*.flac)
Тип рипа: tracks
Разрядность: 24/88,2
Формат: PCM
Количество каналов: 2.0
Треклист:
01. Intro
02. Cookies
03. Fantani
04. Riddles
05. Congo Rag
06. Too Many Keys
07. The Wizard
08. Liane et banian
09. Matongué
10. Around the World in a Day
11. Fantani (Radio Edit)
 
DR Log
foobar2000 1.1.10 / Dynamic Range Meter 1.1.1
log date: 2018-03-06 12:44:23
--------------------------------------------------------------------------------
Analyzed: Ray Lema and Laurent de Wilde / Riddles
--------------------------------------------------------------------------------
DR         Peak         RMS     Duration Track
--------------------------------------------------------------------------------
DR16     -10.37 dB   -33.60 dB      1:31 ?-Intro
DR11      -0.10 dB   -13.64 dB      5:59 ?-Cookies
DR10      -0.10 dB   -12.43 dB      4:28 ?-Fantani
DR13      -0.10 dB   -15.74 dB      4:52 ?-Riddles
DR11      -0.10 dB   -13.64 dB      3:41 ?-Congo Rag
DR15      -0.10 dB   -17.64 dB      2:53 ?-Too Many Keys
DR11      -0.10 dB   -13.44 dB      5:14 ?-The Wizard
DR13      -1.98 dB   -18.73 dB      4:45 ?-Liane et banian
DR11      -0.10 dB   -13.43 dB      5:12 ?-Matongué
DR13      -0.73 dB   -16.68 dB      3:56 ?-Around the World in a Day
DR10      -0.10 dB   -12.30 dB      3:44 ?-Fantani (Radio Edit)
--------------------------------------------------------------------------------
Number of tracks:  11
Official DR value: DR12
Samplerate:        88200 Hz
Channels:          2
Bits per sample:   24
Bitrate:           2289 kbps
Codec:             FLAC
================================================================================
 
 
Об исполнителе (группе)
Internationally renowned jazz pianist, Laurent de Wilde has been described as an exciting and passionate musician. Born in the United States in 1960, de Wilde spent his formative years (1964 to 1983) in France where he was immersed in French culture, music and literature eventually studying philosophy at the “Ecole Normale Supérieure” in Paris.
In 2016, “Riddles”, a piano duo album where African legend Ray Lema and de Wilde “play as few notes as possible and just the right ones”, was released. In concert, this project reaches its full potential and has lead to the duo performing regularly on French and European stages.
https://en.wikipedia.org/wiki/Ray_Lema
https://fr.wikipedia.org/wiki/Laurent_de_Wilde

Раздаю до первых 5-ти скачавших, на раздачи не возвращаюсь...
14:01
536
Нет комментариев. Ваш будет первым!