Поиск

[TR24][OF] (Rahsaan) Roland Kirk - Left & Right - 1968/2011 (Post-Bop, Soul-Jazz)

[TR24][OF] (Rahsaan) Roland Kirk - Left & Right - 1968/2011 (Post-Bop, Soul-Jazz)
Треклист:
Roland Kirk - Left & Right Формат записи/Источник записи: [TR24][OF]
Наличие водяных знаков: Нет
Год издания/переиздания диска: 1968/2011
Жанр: Post-Bop, Soul-Jazz
Издатель (лейбл): Rhino Atlantic
Продолжительность: 42:55
Наличие сканов в содержимом раздачи: Только обложка альбома
Треклист:
01. Black Mystery Has Been Revealed (1:18)
02. Expansions (19:37)
03. Lady's Blues (3:48)
04. I X Love (3:42)
05. Hot Cha (3:25)
06. Quintessence (4:14)
07. I Waited For You (2:55)
08. A Flower Is A Lovesome Thing (3:57)
 
 
Состав
Credits:
Bass – Vernon Martin
Bassoon – Daniel Jones (5)
Celesta – Roland Kirk
Drums – Jimmy Hopps
Flute – Roland Kirk
Harp – Alice Coltrane
Horns [Manzello] – Roland Kirk
Horns [Stritch] – Roland Kirk
Narrator – Roland Kirk
Percussion – Gerald Brown*, Warren Smith
Piano – Ron Burton
Piano [Thumb] – Roland Kirk
Producer – Joel Dorn
Saxophone – Pepper Adams, Roland Kirk
Trombone – Benny Powell, Dick Griffin
Trumpet – Richard Williams
Recorded on June 17 & 18, 1968 in New York City.
 
 
Об альбоме (сборнике)
Left & Right is an album by jazz multi-instrumentalist Roland Kirk. It was originally released on the Atlantic label in 1968 and features performances by Kirk with Jim Buffington, Julius Watkins, Frank Wess, Ron Burton, Vernon Martin and Roy Haynes with Warren Smith, Richard Williams, Dick Griffith, Benny Powell, Daniel Jones, Pepper Adams, Alice Coltrane, Jimmy Hopps and Gerald "Sonny" Brown featuring on an extended track and arrangements by Gil Fuller.
The title of this album, Left and Right, no doubt refers to the sides of Rahsaan Roland Kirk's brain, which were both heavily taxed in the composing, arranging, conducting, and playing of this recording. For starters, the band is huge – 17 players plus a 16-piece string section, all of it arranged and conducted by Kirk, a blind man. None of this would matter a damn if this weren't such a badass platter. Along with Kirk's usual crew of Ron Burton, Julius Watkins, Dick Griffin, Jimmy Hopps, and Gerald Brown, there are luminaries in the crowd including Alice Coltrane on harp, Pepper Adams on baritone saxophone, and no less than Roy Haynes helping out on the skins. What it all means is this: The man who surprised and outraged everybody on the scene – as well as blew most away – was at it again here in "Expansions," his wildly ambitious and swinging post-Coltrane suite, which has "Black Mystery Has Been Revealed" as its prelude. While there are other tracks on this record, this suite is its centerpiece and masterpiece – despite killer readings of Billy Strayhorn's "A Flower Is a Lovesome Thing" and "Quintessence." "Expansions" has Kirk putting his entire harmonic range on display, and all of the timbral extensions he used in his own playing are charted for a string section to articulate. There are subtleties, of course, which come off as merely tonal variations in extant harmony with the other instruments, but when they are juxtaposed against a portrayal of the entire history of jazz – from Jelly Roll Morton to the present day – then they become something else: the storytellers, the timbres, and the chromatic extensions that point in the right direction and get listeners to stop in the right places. This is an extreme for Rahsaan – extremely brilliant and thoroughly accessible.

Контейнер: FLAC (*.flac)
Тип рипа: tracks
Разрядность: 24/192
Формат: PCM
Количество каналов: 2.0
 
Лог проверки качества
foobar2000 1.3.9 / Dynamic Range Meter 1.1.1
log date: 2017-11-05 13:39:50
--------------------------------------------------------------------------------
Analyzed: Roland Kirk / Left & Right
--------------------------------------------------------------------------------
DR Peak RMS Duration Track
--------------------------------------------------------------------------------
DR13 -1.49 dB -19.76 dB 1:18 01-Black Mystery Has Been Revealed
DR13 0.00 dB -16.76 dB 19:37 02-Expansions
DR10 -1.88 dB -14.84 dB 3:48 03-Lady's Blues
DR13 -0.75 dB -17.00 dB 3:42 04-I X Love
DR10 -0.37 dB -13.68 dB 3:25 05-Hot Cha
DR11 -0.85 dB -15.37 dB 4:14 06-Quintessence
DR12 -1.67 dB -16.59 dB 2:55 07-I Waited For You
DR12 0.00 dB -15.52 dB 3:57 08-A Flower Is A Lovesome Thing
--------------------------------------------------------------------------------
Number of tracks: 8
Official DR value: DR12
Samplerate: 192000 Hz
Channels: 2
Bits per sample: 24
Bitrate: 5062 kbps
Codec: FLAC
================================================================================
Источник: hdtracks.com
Приватный:
Нет (DHT включён)
Размер:
1.50 Гб (1,606,857,891 байт) » файлов: 12
Участники:
0 раздают, 0 качают (0 участников всего)
Внешние участники:
3 раздают, 1 качают (4 участников всего) [ Обновить ]
No seeders - write personal message to M0p94ok. Нет сидеров - пишите в личку M0p94ok.
02:25
217
Нет комментариев. Ваш будет первым!