Поиск

[TR24][OF] Pete Fountain - New Orleans All Stars (Remastered) - 1962/2017 (Dixieland, New Orleans Jazz)

[TR24][OF] Pete Fountain - New Orleans All Stars (Remastered) - 1962/2017 (Dixieland, New Orleans Jazz)
Треклист:
Pete Fountain - New Orleans All Stars Формат записи/Источник записи: [TR24][OF]
Наличие водяных знаков: Нет
Издание: Remastered
Год издания/переиздания диска: 1962/2017
Жанр: Dixieland, New Orleans Jazz
Издатель (лейбл): Archive of Folk & Jazz Music
Продолжительность: 30:16
Наличие сканов в содержимом раздачи: Только обложка альбома
Треклист:
01. South Rampart Street Parade (2:56)
02. Sensation Rag (4:07)
03. Sunset In Paradise (2:33)
04. In The Shade Of The Old Apple Tree (3:30)
05. Bayou Blues (4:02)
06. Jazz Me Blues (4:05)
07. Bugle Call Rag (1:57)
08. St. James Infirmary (3:10)
09. When The Saints Go Marching In (3:57)
 
Об альбоме (сборнике)
Among the most famous of all New Orleans jazz musicians, clarinetist Pete Fountain exemplifies the Dixieland jazz style and was instrumental in making the sound famous throughout the world. Presented here is a vintage audiophile album featuring Pete leading his band through a classic set of New Orleans Dixieland standards. All selections have been newly remastered.
Although a personnel listing is given for the entire set, it only applies to the four live songs, and even then there is no second reed (despite the listing of Lester Bouchon). The unlisted Sam DeKemel is well showcased on "Bugle Call Rag"; the other main players are clarinetist Pete Fountain, trumpeter Tony Almerico and trombonist Jack Delaney. Two other songs match Fountain with a restrained Al Hirt on trumpet. The mistitled "In the Shade of the Old Apple Tree" (from another session altogether) is actually an unidentified ballad with a charming, if occasionally faltering, Bix Beiderbecke-oriented trumpeter, a conventional six-piece unit and no Fountain. For the punchline, "St. James Infirmary" and "When the Saints Go Marching In" has a personnel bearing no resemblance to what is listed (with trumpeter Buck Clayton, Bud Freeman on tenor, trombonist Vic Dickenson and clarinetist Pee Wee Russell).

Контейнер: FLAC (*.flac)
Тип рипа: tracks
Разрядность: 24/44,1
Количество каналов: 2.0
 
 
Лог проверки качества
foobar2000 1.3.9 / Dynamic Range Meter 1.1.1
log date: 2017-08-29 10:11:27
--------------------------------------------------------------------------------
Analyzed: Pete Fountain / New Orleans All Stars
--------------------------------------------------------------------------------
DR         Peak         RMS     Duration Track
--------------------------------------------------------------------------------
DR7       -1.20 dB   -10.80 dB      2:56 01-South Rampart Street Parade
DR8       -1.17 dB   -11.07 dB      4:07 02-Sensation Rag
DR9       -1.20 dB   -12.25 dB      2:33 03-Sunset In Paradise
DR10      -1.20 dB   -13.13 dB      3:30 04-In The Shade Of The Old Apple Tree
DR9       -1.20 dB   -13.51 dB      4:02 05-Bayou Blues
DR9       -1.17 dB   -11.65 dB      4:05 06-Jazz Me Blues
DR9       -1.20 dB   -10.82 dB      1:57 07-Bugle Call Rag
DR9       -1.20 dB   -12.87 dB      3:10 08-St. James Infirmary
DR9       -1.17 dB   -12.62 dB      3:57 09-When The Saints Go Marching In
--------------------------------------------------------------------------------
Number of tracks:  9
Official DR value: DR9
Samplerate:        44100 Hz
Channels:          2
Bits per sample:   24
Bitrate:           1369 kbps
Codec:             FLAC
================================================================================
Источник: hdtracks.com
20:40
649
Нет комментариев. Ваш будет первым!