Вы используете незарегистрированную версию компонента "Вкладки"!

Поиск

[TR24][OF] Paula Castle - Lost Love (Remastered) - 1955/2014 (Vocal Jazz)

[TR24][OF] Paula Castle - Lost Love (Remastered) - 1955/2014 (Vocal Jazz)
Треклист:
Paula Castle - Lost Love Формат записи/Источник записи: [TR24][OF]
Наличие водяных знаков: Нет
Издание: Remastered
Год издания/переиздания диска: 1955/2014
Жанр: Vocal Jazz
Издатель (лейбл): Bethlehem Records
Продолжительность: 24:25
Наличие сканов в содержимом раздачи: Буклет PDF
Треклист:
01. I'm Shooting High (2:25)
02. Yesterday's Gardenias (3:54)
03. Here I Am In Love Again (4:38)
04. Mountain Greenery (1:55)
05. Lost Love (3:20)
06. You Don't Know What Love Is (2:25)
07. Love Is A One Way Street (2:46)
08. Why Can't I (3:02)
Personnel:
Paula Castle - vocals
Sam Most - flute
Ronnie Selbey - piano
Chet Amsterdam - bass
Herbie Wasserman - drums
Recording date/location unknown but possibly in mid 50's.
Remastered by John Sigmon in 2013. Transfer Engineers: Alex Nappi & Dana Pedersen.
 
 
Об альбоме (сборнике)
This is a reissue of a rare 10-inch vinyl LP dating back to 1955, believed to be the only solo recording from the mysterious Paula Castle, a superb vocalist who was compared to Sarah Vaughan. Castle disappeared from the music scene after this release, which remains her legacy.

Контейнер: FLAC (*.flac)
Тип рипа: tracks
Разрядность: 24/96
Количество каналов: 2.0
 
Лог проверки качества
foobar2000 1.3.15 / Dynamic Range Meter 1.1.1
log date: 2017-07-26 14:31:54
--------------------------------------------------------------------------------
Analyzed: Paula Castle / Lost Love (Remastered 2013)
--------------------------------------------------------------------------------
DR Peak RMS Duration Track
--------------------------------------------------------------------------------
DR11 -1.24 dB -14.94 dB 2:25 01-I'm Shooting High
DR11 -4.35 dB -17.58 dB 3:54 02-Yesterday's Gardenias
DR12 -1.16 dB -15.79 dB 4:38 03-Here I Am In Love Again
DR12 -1.36 dB -14.75 dB 1:55 04-Mountain Greenery
DR12 -1.11 dB -14.98 dB 3:20 05-Lost Love
DR9 -1.29 dB -12.45 dB 2:25 06-You Don't Know What Love Is
DR11 -1.00 dB -14.56 dB 2:46 07-Love Is A One Way Street
DR11 -1.31 dB -15.06 dB 3:02 08-Why Can't I
--------------------------------------------------------------------------------
Number of tracks: 8
Official DR value: DR11
Samplerate: 96000 Hz
Channels: 2
Bits per sample: 24
Bitrate: 2612 kbps
Codec: FLAC
================================================================================
Источник: prestoclassical.co.uk
По всем вопросам пишите личное сообщение пользователю M0p94ok.
20:21
264
Нет комментариев. Ваш будет первым!