Поиск

[TR24][OF] Paolo Fresu, Richard Galliano, Jan Lundgren - Mare Nostrum II - 2016 (ACT Music, Contemporary Jazz, Crossover, World)

[TR24][OF] Paolo Fresu, Richard Galliano, Jan Lundgren - Mare Nostrum II - 2016 (ACT Music, Contemporary Jazz, Crossover, World)
Издатель (лейбл):
Треклист:
Paolo Fresu Richard Galliano Jan Lundgren
Mare Nostrum II
'
Жанр: Contemporary Jazz, Crossover, World
Год издания: 2016
Издатель (лейбл): ACT Music
Номер по каталогу: ACT 9812-2
Страна исполнителя (группы): Italy/France/Sweden
Аудиокодек: FLAC (*.flac) 24 bit / 88,2 kHz
Тип рипа: tracks
Кол-во каналов: 2
Продолжительность: 55:20
Источник (релизер): WEB (спасибо Centroll3)
Наличие сканов: front + booklet.pdf
Треклист:
01. Apnea
02. Blue Silence
03. Aurore
04. Kristallen Den Fina
05. Giselle
06. E Varie Notti Tre Vie Notai
07. Farväl
08. Gnossienne No. 1
09. Lili
10. Leklåt
11. Le Livre D’un Père Sarde
12. Si Dolce è Il Tormento
 
Отчет DRM
foobar2000 1.2.6 / Dynamic Range Meter 1.1.1
log date: 2016-03-26 11:54:50
--------------------------------------------------------------------------------
Analyzed: Paolo Fresu, Richard Galliano, Jan Lundgren / Mare Nostrum II
--------------------------------------------------------------------------------
DR         Peak         RMS     Duration Track
--------------------------------------------------------------------------------
DR12      -0.24 dB   -16.97 dB      5:03 01-Apnea
DR12      -0.25 dB   -15.59 dB      5:09 02-Blue Silence
DR12      -0.27 dB   -15.53 dB      3:57 03-Aurore
DR13      -0.24 dB   -17.05 dB      3:52 04-Kristallen Den Fina
DR10      -0.22 dB   -13.57 dB      5:09 05-Giselle
DR13      -0.26 dB   -16.73 dB      4:30 06-E Varie Notti Tre Vie Notai
DR12      -0.24 dB   -16.79 dB      4:47 07-Farval
DR12      -0.26 dB   -15.53 dB      4:47 08-Gnosienne
DR11      -0.22 dB   -15.06 dB      3:42 09-Lili
DR10      -0.17 dB   -12.78 dB      4:02 10-Leklat
DR12      -2.83 dB   -19.78 dB      4:11 11-Le Livre D'un Pere Sarde
DR12      -0.25 dB   -15.96 dB      6:11 12-Si Dolce E Il Tormento
--------------------------------------------------------------------------------
Number of tracks:  12
Official DR value: DR12
Samplerate:        88200 Hz
Channels:          2
Bits per sample:   24
Bitrate:           2436 kbps
Codec:             FLAC
================================================================================
 
 
Об альбоме
Trumpeter Paolo Fresu is Sardinian, accordionist Richard Galliano is French, and Jan Lundgren, the pianist, is Swedish: three virtuosi who create entirely European music using jazz techniques. One comes up with an idea and all three contribute to the final result. These 12 pieces, with their hints of French chanson, Scandinavian folk dance, Italian love song and universal, dreamy ballads, belong to no particular category. Two of them are adapted from classical originals, one by Monteverdi and the other by Erik Satie, poles apart in time and sensibility, but here they sit happily side by side. With each piece lasting about four minutes, and the mood changing subtly from one to another, it’s a deeply enjoyable listen. (Dave Gelly, The Guardian)
 
 
Состав

Paolo Fresu - trumpet & fluegelhorn
Richard Galliano - accordion, bandoneon & accordina
Jan Lundgren - piano
01:39
709
Нет комментариев. Ваш будет первым!