Поиск

[TR24][OF] Nathan Davis - The Hip Walk (Remastered) - 1965/2016 (Hard Bop, Post-Bop)

[TR24][OF] Nathan Davis - The Hip Walk (Remastered) - 1965/2016 (Hard Bop, Post-Bop)
Треклист:
Nathan Davis - The Hip Walk Формат записи/Источник записи: [TR24][OF]
Наличие водяных знаков: Нет
Издание: Remastered
Год издания/переиздания диска: 1965/2016
Жанр: Hard Bop, Post-Bop
Издатель (лейбл): MPS Records
Продолжительность: 39:18
Наличие сканов в содержимом раздачи: Только обложка альбома
Треклист:
01. The Hip Walk (6:59)
02. While Children Sleep (7:22)
03. Train Of Thought (5:25)
04. Yesterdays (2:54)
05. That Kaycee Thing (7:55)
06. Carmell's Black Forest Waltz (3:45)
07. B's Blues (4:58)
Personnel:
Nathan Davis - ts, ss, fl
Carmell Jones - tp
Francy Boland - p
Jimmy Woode - b
Kenny Clarke - d
Rec.: SABA Tonstudio Villingen, Germany, September 1, 1965.
 
 
Несколько слов на английском
Nathan Davis is an American hard bop jazz multi-instrumentalist who plays the tenor saxophone, soprano saxophone, bass clarinet and flute. He is one of the great balladeers of modern jazz. Nathan Davis spent some time living and working in Europe in the mid-'60s before returning to the United States to serve in jazz education. His recordings as a leader have been hard to find, so this 1965 studio session will be a welcome discovery for collectors who can find it.
This album features trumpeter Carmell Jones, pianist Francy Boland and drummer Kenny Clarke. Although the arrangements are equally challenging, things seem looser on this session, suggesting that there was more time to rehearse, though that is unlikely, since Jones was flown in especially for this date. The Coltrane influence is again apparent in the ballad "While Children Sleep." It would be easy to imagine Art Blakey tackling the furious "Train of Thought". Davis switches to flute for a haunting take of Jerome Kern's "Yesterdays". This valuable music was reissued in Europe by Motor Music in 1998, though it may very well have already lapsed again from print; it is well-worth investigating.

Контейнер: FLAC (*.flac)
Тип рипа: tracks
Разрядность: 24/88,2
Формат: PCM
Количество каналов: 2.0
 
 
Лог проверки качества
foobar2000 1.3.9 / Dynamic Range Meter 1.1.1
log date: 2018-02-05 21:49:39
--------------------------------------------------------------------------------
Analyzed: Nathan Davis Quintet / The Hip Walk
--------------------------------------------------------------------------------
DR         Peak         RMS     Duration Track
--------------------------------------------------------------------------------
DR12      -2.97 dB   -17.49 dB      6:59 01-The Hip Walk
DR11      -4.97 dB   -19.98 dB      7:22 02-While Children Sleep
DR12      -2.92 dB   -17.50 dB      5:25 03-Train Of Thought
DR11      -5.47 dB   -19.19 dB      2:54 04-Yesterdays
DR13      -0.66 dB   -16.88 dB      7:55 05-That Kaycee Thing
DR13      -4.12 dB   -19.17 dB      3:45 06-Carmell's Black Forest Waltz
DR11      -4.09 dB   -17.77 dB      4:58 07-B's Blues
--------------------------------------------------------------------------------
Number of tracks:  7
Official DR value: DR12
Samplerate:        88200 Hz
Channels:          2
Bits per sample:   24
Bitrate:           2667 kbps
Codec:             FLAC
================================================================================
Источник: qobuz.com
09:59
656
Нет комментариев. Ваш будет первым!