Вы используете незарегистрированную версию компонента "Вкладки"!

Поиск

[TR24][OF] Natalie Dessay & Michel Legrand - Entre Elle et Lui - 2013 (Vocal Jazz)

[TR24][OF] Natalie Dessay & Michel Legrand - Entre Elle et Lui - 2013 (Vocal Jazz)
Треклист:
Natalie Dessay & Michel Legrand - Entre Elle et Lui Формат записи/Источник записи: [TR24][OF]
Наличие водяных знаков: Нет
Год издания/переиздания диска: 2013
Жанр: Vocal Jazz
Издатель (лейбл): Warner Classics International
Продолжительность: 65:30
Наличие сканов в содержимом раздачи: Буклет PDF
Треклист:
01. Chanson de Delphine (from the movie Les Demoiselles de Rochefort) (3:23)
02. Le Cinéma (3:07)
03. Chanson de Delphine à Lancien (from the movie Les Demoiselles de Rochefort) (2:18)
04. Papa Can You Hear Me (from the movie Yentl) (4:32)
05. Cake d'Amour (from the movie Peau d'Âne) (2:39)
06. La valse des lilas (4:09)
07. Les moulins de mon coeur (from the movie The Thomas Crown Affair) (3:06)
08. L'âme soeur à l'hameçon (1:57)
09. What Are You Doing The Rest Of Your Life? (7:52)
10. Nous sommes des soeurs jumelles (from the movie Les Demoiselles de Rochefort) (3:25)
11. Le rouge et le noir (3:24)
12. Conseil de la Fée Lilas (from the movie Peau d'Âne) (2:03)
13. Duo de Guy et Geneviève (from the movie Les Parapluies de Cherbourg) (6:14)
14. La chanson de Louba (3:04)
15. La chanson (2:03)
16. Paris Violon (2:56)
17. The Summer Knows (from the movie Summer '42) (5:05)
18. Mon dernier concert (4:14)
Personnel:
Natalie Dessay - vocals
Michel Legrand - piano, vocals (7)
Pierre Boussaguet - bass
Francois Laizeau - drums
Patricia Petibon - vocals (10)
Laurent Naouri - vocals (13)
Catherine Michel - harp (18)
 
 
Об альбоме
The album will feature all the favourite hits Natalie has performed with Monsieur Legrand all over France the past few years. It will be Natalie's first full non-operatic recording and will feature French soprano Patricia Petibon and Natalie's very own husband, Laurent Naouri!
France’s famous composer, Michel Legrand, and one of the most celebrated voices of the European stage, Natalie Dessay, will move you with the timeless and unforgettable repertoire of this great musical icon.
At the piano, Legrand will treat audiences to a magical performance of some of his biggest hits, masterfully interpreted by the sublime Natalie Dessay in this celebration of the French composer’s best-known songs, including Les Parapluies de Cherbourg, Yentl, and Les Moulins de mon coeur.
Michel Legrand has enjoyed stellar success throughout his long career, which spans three Oscars, numerous compositions, and collaborations with some of the biggest names in music, including Ray Charles, Claude Nougaro, Barbra Streisand, and Miles Davis. Natalie Dessay, opera star and headliner at the New York Metropolitan Opera, brings down the house wherever she performs.

Контейнер: FLAC (*.flac)
Тип рипа: tracks
Разрядность: 24/44,1
Формат: PCM
Количество каналов: 2.0
 
Лог проверки качества
foobar2000 1.3.9 / Dynamic Range Meter 1.1.1
log date: 2018-02-05 07:58:02
--------------------------------------------------------------------------------
Analyzed: Natalie Dessay & Michel Legrand / Entre elle et lui
--------------------------------------------------------------------------------
DR Peak RMS Duration Track
--------------------------------------------------------------------------------
DR10 -1.07 dB -14.68 dB 3:23 01-Chanson de Delphine (from the movie Les Demoiselles de Rochefort)
DR8 -0.95 dB -11.32 dB 3:07 02-Le Cinéma
DR9 -1.00 dB -11.23 dB 2:18 03-Chanson de Delphine à Lancien (from the movie Les Demoiselles de Rochefort)
DR12 -1.13 dB -17.68 dB 4:32 04-Papa Can You Hear Me (from the movie Yentl)
DR10 -1.04 dB -12.57 dB 2:39 05-Cake d'Amour (from the movie Peau d'Âne)
DR10 -1.08 dB -13.48 dB 4:09 06-La valse des lilas
DR11 -1.12 dB -14.19 dB 3:06 07-Les moulins de mon coeur (from the movie The Thomas Crown Affair)
DR8 -1.00 dB -10.36 dB 1:57 08-L'âme soeur à l'hameçon
DR11 -0.99 dB -15.27 dB 7:52 09-What Are You Doing The Rest Of Your Life?
DR9 -0.97 dB -11.48 dB 3:25 10-Nous sommes des soeurs jumelles (from the movie Les Demoiselles de Rochefort)
DR9 -0.93 dB -13.31 dB 3:24 11-Le rouge et le noir
DR11 -0.86 dB -13.25 dB 2:03 12-Conseil de la Fée Lilas (from the movie Peau d'Âne)
DR9 -0.97 dB -12.82 dB 6:14 13-Duo de Guy et Geneviève (from the movie Les Parapluies de Cherbourg)
DR10 -0.93 dB -14.61 dB 3:04 14-La chanson de Louba
DR8 -0.73 dB -11.39 dB 2:03 15-La chanson
DR8 -0.68 dB -11.23 dB 2:56 16-Paris Violon
DR13 -1.13 dB -17.53 dB 5:05 17-The Summer Knows (from the movie Summer '42)
DR9 -1.01 dB -13.24 dB 4:14 18-Mon dernier concert
--------------------------------------------------------------------------------
Number of tracks: 18
Official DR value: DR10
Samplerate: 44100 Hz
Channels: 2
Bits per sample: 24
Bitrate: 1518 kbps
Codec: FLAC
================================================================================
Источник: 7digital.com
Any questions - support@pro-jazz.com. Есть вопросы - support@pro-jazz.com
09:56
412
Нет комментариев. Ваш будет первым!