Вы используете незарегистрированную версию компонента "Вкладки"!

Поиск

[TR24][OF] Monty Alexander & Ernest Ranglin - Untitled (aka Just Friends) (Remastered) - 1981/2014 (Post-Bop)

[TR24][OF] Monty Alexander & Ernest Ranglin - Untitled (aka Just Friends) (Remastered) - 1981/2014 (Post-Bop)
Треклист:
Monty Alexander & Ernest Ranglin - Untitled (aka Just Friends) Формат записи/Источник записи: [TR24][OF]
Наличие водяных знаков: Нет
Издание: Remastered
Год издания/переиздания диска: 1981/2014
Жанр: Post-Bop
Издатель (лейбл): MPS Records
Продолжительность: 49:11
Наличие сканов в содержимом раздачи: Только обложка альбома
Треклист:
01. Just Friends (5:48)
02. If I Should Lose You (5:52)
03. Taboo (4:51)
04. Cruxian Dance (3:44)
05. Con Alma (4:41)
06. Fools Rush In (3:48)
07. Consider (5:42)
09. Lullaby Of The Leaves (4:32)
08. Mountain Melody (5:19)
10. Fly Me To The Moon (4:54)
Personnel:
Ernest Ranglin - guitar
Monty Alexander - piano, electric piano, melodica
Rec.: MPS Studio, Villingen, Germany, December 17 & 18, 1980.
 
 
Об альбоме
Originally released on MPS Records, this is a subtle and fairly creative duet set featuring pianist Monty Alexander and the Jamaican guitarist Ernest Ranglin. On seven standards (including "Just Friends", "If I Should Lose You" and "Fly Me To The Moon") and three originals, Alexander and Ranglin listen closely to each other and indulge in some tight musical interaction. Although boppish, the music is not overly predictable; the musicians' mutual respect is obvious. Well worth searching for.

Контейнер: FLAC (*.flac)
Тип рипа: tracks
Разрядность: 24/88,2
Формат: PCM
Количество каналов: 2.0
 
Лог проверки качества
foobar2000 1.3.9 / Dynamic Range Meter 1.1.1
log date: 2018-01-23 14:34:04
--------------------------------------------------------------------------------
Analyzed: Monty Alexander & Ernest Ranglin / Untitled
--------------------------------------------------------------------------------
DR Peak RMS Duration Track
--------------------------------------------------------------------------------
DR13 -1.83 dB -18.03 dB 5:48 01-Just Friends
DR13 -3.87 dB -21.54 dB 5:52 02-If I Should Lose You
DR13 -1.88 dB -18.91 dB 4:51 03-Taboo
DR12 -3.08 dB -18.20 dB 3:44 04-Cruxian Dance
DR12 -1.50 dB -16.63 dB 4:41 05-Con Alma
DR12 -3.22 dB -18.52 dB 3:48 06-Fools Rush In
DR12 -2.88 dB -20.70 dB 5:42 07-Consider
DR12 -1.66 dB -17.22 dB 5:19 08-Mountain Melody
DR12 -3.23 dB -19.96 dB 4:32 09-Lullaby Of The Leaves
DR13 -0.80 dB -16.88 dB 4:54 10-Fly Me To The Moon
--------------------------------------------------------------------------------
Number of tracks: 10
Official DR value: DR12
Samplerate: 88200 Hz
Channels: 2
Bits per sample: 24
Bitrate: 2438 kbps
Codec: FLAC
================================================================================
Источник: highresaudio.com
Any questions - support@pro-jazz.com.
Есть вопросы - support@pro-jazz.com
08:57
291
Нет комментариев. Ваш будет первым!