Поиск

[TR24][OF] Milt Jackson - Plenty, Plenty Soul - 1957/2014 (Post-Bop)

[TR24][OF] Milt Jackson - Plenty, Plenty Soul - 1957/2014 (Post-Bop)
Треклист:
Milt Jackson - Plenty, Plenty Soul Формат записи/Источник записи: [TR24][OF]
Наличие водяных знаков: Нет
Год издания/переиздания диска: 1957/2014
Жанр: Post-Bop
Издатель (лейбл): Rhino Atlantic
Продолжительность: 41:52
Наличие сканов в содержимом раздачи: Только обложка альбома
Треклист:
01. Plenty, Plenty Soul (9:35)
02. Boogity Boogity (4:58)
03. Heartstrings (4:57)
04. Sermonette (5:29)
05. The Spirit-Feel (4:26)
06. Ignunt Oil (5:39)
07. Blues At Twilight (6:49)
Personnel:
Milt Jackson - vib
Joe Newman - tp
Jimmy Cleveland (1-3) - tb
Cannonball Adderley (1-3) - as
Frank Foster (1-3), Lucky Thompson (4-7) - ts
Sahib Shihab (1-3) - bars
Horace Silver - p
Percy Heath (1-3), Oscar Pettiford (4-7) - b
Art Blakey (1-3), Connie Kay (4-7) - d
Rec.: Capitol Studios, NYC, NY, January 7, 1957 (1-3); Coastal Studios, NYC, NY, January 5, 1957 (4-7). 
 
AllMusic Review by Scott Yanow
This superior reissue combines together two sessions led by vibraphonist Milt Jackson. Actually, although Bags is in fine form (and contributed four of the seven selections), he is often overshadowed by rather inspired solos from his sidemen. The first side of Plenty, Plenty Soul, which features a nine-piece group, is highlighted by the contributions of the exuberant altoist Cannonball Adderley, while the flip side has a sextet that is not hurt by the solos of tenor-saxophonist Lucky Thompson. With pianist Horace Silver helping out on both sessions, these all-star dates still sound fresh and enthusiastic decades later.

Контейнер: FLAC (*.flac)
Тип рипа: tracks
Разрядность: 24/192
Количество каналов: 2.0
 
Лог проверки качества
foobar2000 1.3.9 / Dynamic Range Meter 1.1.1
log date: 2017-06-26 18:11:06
--------------------------------------------------------------------------------
Analyzed: Milt Jackson / Plenty, Plenty Soul (Mono)
--------------------------------------------------------------------------------
DR Peak RMS Duration Track
--------------------------------------------------------------------------------
DR11 -3.11 dB -17.05 dB 9:35 01-Plenty, Plenty Soul
DR11 -3.11 dB -16.70 dB 4:58 02-Boogity Boogity
DR12 -3.38 dB -19.49 dB 4:57 03-Heartstrings
DR14 -3.30 dB -21.27 dB 5:29 04-Sermonette
DR13 -3.39 dB -18.75 dB 4:26 05-The Spirit-Feel
DR14 -3.11 dB -19.61 dB 5:39 06-Ignunt Oil
DR14 -5.26 dB -21.15 dB 6:49 07-Blues At Twilight
--------------------------------------------------------------------------------
Number of tracks: 7
Official DR value: DR13
Samplerate: 192000 Hz
Channels: 2
Bits per sample: 24
Bitrate: 2366 kbps
Codec: FLAC
================================================================================
Источник: hdtracks.com
Приватный:
Нет (DHT включён)
Размер:
736.77 Мб (772,558,309 байт) » файлов: 11
Участники:
0 раздают, 1 качают (1 участников всего)
Внешние участники:
1 раздают, 0 качают (1 участников всего) [ Обновить ]
Скорость:
310.36 Кб/c 4.01 Кб/c
For power users only: no seeders - write to support@pro-jazz.com. Для power user: нет сидеров - пишите на support@pro-jazz.com.
18:38
290
Нет комментариев. Ваш будет первым!