Поиск

[TR24][OF] Kenny Drew (with Freddie Hubbard, Hank Mobley, Sam Jones, Louis Hayes) - Undercurrent [Blue Note] - 1961/2014 (Hard Bop)

[TR24][OF] Kenny Drew (with Freddie Hubbard, Hank Mobley, Sam Jones, Louis Hayes) - Undercurrent [Blue Note] - 1961/2014 (Hard Bop)
Треклист:
Kenny Drew
Undercurrent
Год издания/переиздания диска: 1961/2014
Жанр: Hard Bop
Издатель: Blue Note
Продолжительность: 00:38:40
Наличие сканов: Sleeve


01. Undercurrent (7:19)
02. Funk-Cosity (8:28)
03. Lion's Den (4:55)
04. The Pot's On (6:07)
05. Groovin' The Blues (6:21)
06. Ballade (5:31)

Контейнер: FLAC (*.flac)
Тип рипа: tracks
Разрядность: 24bit / 192kHz
Количество каналов: 2.0
 
О релизе

Fire and finesse
While he perhaps never achieved star status outside the jazz world, Kenny Drew was and remains one of the preeminent straight-ahead bebop pianists. While he has led a very active career, 1960's „Undercurrent“ was Drew's last album as a leader until the 1970's. In a way, „Undercurrent“ is the intersection of two very popular jazz groups of the day--Cannonball Adderley's (Sam Jones and Louis Hayes) and Art Blakey's Jazz Messengers (Hank Mobley and Freddie Hubbard), with Drew's keys and tunes the unifying voice. „Undercurrent“ is a fine, timeless mix of bop funk, fire, and finesse.
Kenny Drew, piano
Hank Mobley, tenor saxophone
Freddie Hubbard, trumpet
Sam Jones, acoustic bass
Louis Hayes, drums
Recorded at Van Gelder Studios in New York in 1960
Recorded by Rudy Van Gelder
Produced by Alfred Lion
Digitally remastered
 
 
Отчёты
 
 
Динамический диапазон
foobar2000 1.3.8 / Dynamic Range Meter 1.1.1
log date: 2015-08-06 11:41:11
--------------------------------------------------------------------------------
Analyzed: Kenny Drew / Undercurrent
--------------------------------------------------------------------------------
DR         Peak         RMS     Duration Track
--------------------------------------------------------------------------------
DR11      -0.31 dB   -14.84 dB      7:19 01-Undercurrent
DR12      -0.02 dB   -16.33 dB      8:28 02-Funk-Cosity
DR11      -0.92 dB   -15.46 dB      4:55 03-Lion's Den
DR13      -1.14 dB   -16.53 dB      6:07 04-The Pot's On
DR12      -0.60 dB   -16.79 dB      6:21 05-Groovin' The Blues
DR12      -3.47 dB   -18.46 dB      5:31 06-Ballade
--------------------------------------------------------------------------------
Number of tracks:  6
Official DR value: DR12
Samplerate:        192000 Hz
Channels:          2
Bits per sample:   24
Bitrate:           5550 kbps
Codec:             FLAC
================================================================================
 
 
Скриншот спектра частот
 
 
 
Доп. информация
При скачивании, если необходимо, переименуйте папку, в которой будет находиться альбомБольшая просьба к скачавшим поддерживать раздачу! Помогайте другим, ведь вам тоже может понадобиться помощь!Не забываем говорить "Спасибо"!Комментарии приветствуются!
23:58
798
Нет комментариев. Ваш будет первым!