Поиск

[TR24][OF] Kat Edmonson - The Big Picture - 2015 (Jazz, Pop, Vocal Jazz)

[TR24][OF] Kat Edmonson - The Big Picture - 2015 (Jazz, Pop, Vocal Jazz)
Треклист:
Kat Edmonson / The Big Picture
Формат записи/Источник записи: [TR24][OF]
Наличие водяных знаков: Нет
Год издания/переиздания диска: 2015
Жанр: Jazz, Pop, Vocal Jazz
Издатель (лейбл): Masterworks
Продолжительность: 00:41:11
Наличие сканов в содержимом раздачи: Буклет PDF
Источник (релизер): 7digital
Контейнер: FLAC (*.flac)
Тип рипа: tracks
Разрядность: 24/96
Формат: PCM
Количество каналов: 2.0
Треклист:
01. Rainy Day Woman
02. You Said Enough
03. Oh My Love
04. Avion
05. Crying
06. All The Way
07. You Can't Break My Heart
08. Till We Start To Kiss
09. The Best
10. Dark Cloud
11. For Two
12. Who's Counting
 
Лог проверки качества
foobar2000 1.1.10 / Dynamic Range Meter 1.1.1
log date: 2017-12-21 16:14:14
--------------------------------------------------------------------------------
Analyzed: Kat Edmonson / The Big Picture
--------------------------------------------------------------------------------
DR         Peak         RMS     Duration Track
--------------------------------------------------------------------------------
DR6       -0.47 dB    -9.41 dB      3:26 ?-Rainy Day Woman
DR8       -0.43 dB    -9.69 dB      2:55 ?-You Said Enough
DR9       -0.56 dB   -12.08 dB      2:49 ?-Oh My Love
DR8       -0.36 dB    -9.66 dB      2:48 ?-Avion
DR8       -0.66 dB   -10.32 dB      3:25 ?-Crying
DR9       -0.96 dB   -13.70 dB      2:50 ?-All The Way
DR7       -0.64 dB   -10.34 dB      3:50 ?-You Can't Break My Heart
DR7       -0.51 dB    -9.39 dB      3:43 ?-Till We Start To Kiss
DR8       -0.31 dB   -10.40 dB      3:27 ?-The Best
DR8       -0.67 dB    -9.97 dB      3:26 ?-Dark Cloud
DR9       -0.65 dB   -10.98 dB      4:26 ?-For Two
DR8       -0.50 dB   -10.12 dB      4:06 ?-Who's Counting
--------------------------------------------------------------------------------
Number of tracks:  12
Official DR value: DR8
Samplerate:        96000 Hz
Channels:          2
Bits per sample:   24
Bitrate:           2566 kbps
Codec:             FLAC
================================================================================
 
 
Состав
Kat Edmonson - vocals, chimes, arrangements
Mitchell Froom - celeste, glockenspiel, harmonium, keyboards, organ, piano, electric piano, arrangements
Dan Higgins - chimes, clarinet, bass clarinet, sax (alto, baritone, tenor)
Lori Stuntz - trombone, bass trombone
Jeff Young - piano
George Doering - guitar
Val McCallum - banjo, guitar
Brad Dutz - vibraphone
Bob Gloub - bass
Davey Faragher - bass
David Piltch - double bass
Ian Walker - double bass
Pete Thomas - drums, percussion
Michael Urbano - drums, percussion
Brian Wolfe - drums, percussion
Aaron Thurston - drums
Matt Chamberlain - drums
Chris Lovejoy - marimba, percussion
Greg Leisz - pedal steel
Andrew Bulbrook - violin
Benjamin Jacobson - violin
Eric Byers - cello
Jonathan Moerschel - viola
 
 
Об исполнителе (группе)
Jazz chanteuse Kat Edmonson may have had no formal training, but the young vocalist possesses one of the most authentic voices to ever croon selections from the Great American Songbook. One listen to the Houston native's ethereal purr is enough to hook even the most casual music fan, and her song "Lucky" was featured on the MTV series United States of Tara. It was Edmonson's mother's record collection and old movies that initially stirred her artistic soul, but having a career in music wasn't initially a given. After a stint at college in Charleston, South Carolina, Edmonson returned to Texas and decided to follow the musical call. An audition for American Idol in 2002 landed Edmonson a trip to Hollywood and a spot in the Top 48. Her Idol dreams ended abruptly when judge Randy Jackson told the singer she didn't "look like a star." After her exit from Idol, Edmonson began honing her chops at open-mike nights and eventually made the transition to full-time performer. Her debut album, 2009's Take to the Sky, was a mix of classic and modern songs, and proved Edmonson was more than ready for her jazz ascension. Three years later, she returned with the Kickstarter-funded Way Down Low. In 2014, Edmonson released the Mitchell Froom-produced The Big Picture.
https://en.wikipedia.org/wiki/Kat_Edmonson
По всем вопросам пишите личное сообщение пользователю M0p94ok.
05:02
526
Нет комментариев. Ваш будет первым!