Поиск

[TR24][OF] Julian Lage - Arclight - 2016 (Jazz, Jazz blues)

[TR24][OF] Julian Lage - Arclight - 2016 (Jazz, Jazz blues)
Издатель (лейбл):
Треклист:
Julian Lage / Arclight
Формат записи/Источник записи: [TR24][OF]
Наличие водяных знаков: Нет
Год издания/переиздания диска: 2016
Жанр: Jazz, Jazz blues
Издатель (лейбл): Mack Avenue
Продолжительность: 00:36:50
Наличие сканов в содержимом раздачи: Нет
Источник (релизер): 7digital
Контейнер: FLAC (*.flac)
Тип рипа: tracks
Разрядность: 24/96
Формат: PCM
Количество каналов: 2.0
Треклист:
01. Fortune Teller
02. Persian Rug
03. Nocturne
04. Supera
05. Stop Go Start
06. Activate
07. Presley
08. Prospero
09. I'll Be Seeing You
10. Harlem Blues
11. Ryland
 
DR Log
foobar2000 1.1.10 / Dynamic Range Meter 1.1.1
log date: 2017-07-13 14:51:31
--------------------------------------------------------------------------------
Analyzed: Julian Lage / Arclight
--------------------------------------------------------------------------------
DR         Peak         RMS     Duration Track
--------------------------------------------------------------------------------
DR5       -0.30 dB    -6.96 dB      3:04 ?-Fortune Teller
DR6       -0.30 dB    -7.51 dB      2:23 ?-Persian Rug
DR7       -0.30 dB    -9.12 dB      3:19 ?-Nocturne
DR7       -0.30 dB    -8.54 dB      4:02 ?-Supera
DR9       -0.30 dB   -11.78 dB      3:32 ?-Stop Go Start
DR6       -0.30 dB    -8.16 dB      2:09 ?-Activate
DR6       -0.30 dB    -9.78 dB      4:12 ?-Presley
DR5       -0.30 dB    -6.23 dB      3:08 ?-Prospero
DR8       -0.30 dB   -11.50 dB      3:31 ?-I'll Be Seeing You
DR7       -0.30 dB    -8.92 dB      3:28 ?-Harlem Blues
DR6       -0.30 dB    -9.14 dB      4:02 ?-Ryland
--------------------------------------------------------------------------------
Number of tracks:  11
Official DR value: DR7
Samplerate:        96000 Hz
Channels:          2
Bits per sample:   24
Bitrate:           2694 kbps
Codec:             FLAC
================================================================================
 
 
Состав
Julian Lage – electric guitar
Scott Colley – bass
Kenny Wollesen – drums, vibraphone
 
 
Об исполнителе (группе)
Jazz guitarist Julian Lage is somewhat of a child prodigy -- playing his instrument at the age of five and performing in public a year later. Shortly thereafter, Lage began playing with such renowned artists as Carlos Santana (when he was only eight years old!), Pat Metheny, Kenny Werner, Toots Thielemans, Martin Taylor, and David Grisman, among others, resulting in Lage being the subject of the 1997 Academy Award-nominated documentary film Jules at Eight. In addition to performing, Lage has recorded as a duo with Grisman (the 1999 release Dawg Duos), and contributed a fine cover of "In a Sentimental Mood" with Martin Taylor and David Grisman, to the 2000 compilation Acoustic Disc: 100% Handmade Music, Vol. 5. Lage has also appeared at numerous jazz concerts/festivals and performed at the 2000 Grammy Awards. In 2009, Lage released his debut solo album, Sounding Point, on Emarcy. The album was widely celebrated as the arrival of a new and authoritative voice on the instrument.
This was followed by the concept album Gladwell in 2011. He fronted a quintet that featured bassist Jorge Roeder, tenor saxophonist Dan Blake, cellist Aristides Rivas, and drummer/percussionist Tupac Mantilla.
The guitarist switched labels for 2013's Free Flying. Issued on Palmetto Records, it was recorded in duet with pianist Fred Hersch.
The duo format apparently agreed with Lage, though its focus shifted a bit. In 2014, he issued two such albums.The first was Avalon with guitarist Chris Eldridge. Produced by the Milk Carton Kids' Kenneth Pattengale, it contained bluegrass, folk, jazz, and classic pop standards; the pair called it a "love letter to the acoustic guitar." Lage's second 2014 album, Room, with fellow jazz guitarist Nels Cline, appeared on Mack Avenue. Its focus was on a range of material, from intricately composed and complex works to free and spontaneous improvisations.
In 2016, Lage released the trio album Arclight with bassist Scott Colley and drummer Kenny Wollesen. Produced by Grammy-winning guitarist/songwriter Jesse Harris (Norah Jones, Madeleine Peyroux), the album featured the single "Nocturne." A five song EP, Live in Los Angeles, followed later that year documenting concert versions of songs from Arclight. In early 2017, Lage reunited with Chris Eldridge for a second volume of acoustic guitar duets called Mount Royal.
19:44
569
Нет комментариев. Ваш будет первым!