Поиск

[TR24][OF] Jaco Pastorius - JACO: Original Soundtrack - 2015 (Jazz)

Треклист:
Jaco Pastorius - JACO: Original Soundtrack
Формат записи/Источник записи: [TR24][OF]
Наличие водяных знаков: Нет
Год издания/переиздания диска: 2015
Жанр: Jazz
Издатель (лейбл): Columbia/Legacy
Продолжительность: 01:15:07
Наличие сканов в содержимом раздачи: Только обложка альбома
Источник (релизер): Qobuz
Треклист:
01. Come On, Come Over – Jaco Pastorius
02. Continuum – Jaco Pastorius
03. River People – Weather Report
04. Teen Town – Weather Report
05. Portrait Of Tracy – Jaco Pastorius
06. The Dry Cleaner From Des Moines (Live Version) – Joni Mitchell
07. All American Alien Boy – Ian Hunter
08. Liberty City (with Herbie Hancock) – Jaco Pastorius
09. Okonkole Y Trompa – Jaco Pastorius
10. Barbary Coast – Weather Report
11. Crisis – Jaco Pastorius
12. Longing – Mary Pastorius
13. Nineteen Eighty Seven – †††
14. Shine – Tech N9ne
15. Continuum – Rodrigo y Gabriela
16. Come On Come Over – Mass Mental (featuring Robert Trujillo, Armand Sabal-Lecco, Flea, Whit Crane, Benji Webbe, Stephen Perkins & C-Minus)
Compilation Produced by Robert Trujillo & Johnny Pastorius
Контейнер: FLAC (*.flac)
Тип рипа: tracks
Разрядность: 24/44,1
Формат: PCM
Количество каналов: 2.0
 
Лог проверки качества
foobar2000 1.3.1 / Dynamic Range Meter 1.1.1
log date: 2017-06-13 12:47:06
--------------------------------------------------------------------------------
Analyzed: ††† (Crosses), Mary Pastorius / JACO Original Soundtrack (1)
††† (Crosses), Tech N9ne / JACO Original Soundtrack (2)
Ian Hunter / JACO Original Soundtrack (3)
Jaco Pastorius with Herbie Hancock / JACO Original Soundtrack (4)
Jaco Pastorius / JACO Original Soundtrack (5-9)
Joni Mitchell / JACO Original Soundtrack (10)
Mass Mental feat. Robert Trujillo, Armand Sabal-Lecco, Flea, Whit Crane, Benji Webbe, Stephen Perkins, C-Minus / JACO Original Soundtrack (11)
Rodrigo y Gabriela, Mass Mental / JACO Original Soundtrack (12)
Rodrigo y Gabriela, Tech N9ne / JACO Original Soundtrack (13)
Weather Report / JACO Original Soundtrack (14-16)
--------------------------------------------------------------------------------
DR Peak RMS Duration Track
--------------------------------------------------------------------------------
DR12 -0.79 dB -16.03 dB 5:20 12-Longing
DR6 -3.92 dB -12.62 dB 3:13 13-Nineteen Eighty Seven
DR11 0.00 dB -13.71 dB 7:09 07-All American Alien Boy
DR13 0.00 dB -16.92 dB 11:59 08-Liberty City
DR10 -0.99 dB -13.16 dB 3:53 01-Come On, Come Over
DR11 -0.30 dB -13.84 dB 4:34 02-Continuum
DR12 0.00 dB -14.36 dB 2:22 05-Portrait of Tracy
DR12 -0.30 dB -13.83 dB 4:24 09-Okonkole y Trompa
DR13 0.00 dB -15.00 dB 5:21 11-Crisis
DR14 0.00 dB -16.70 dB 4:30 06-The Dry Cleaner from Des Moines (Live)
DR6 -3.77 dB -10.78 dB 4:11 16-Come On, Come Over
DR6 -4.24 dB -12.68 dB 4:25 15-Continuum
DR8 -2.05 dB -13.22 dB 2:53 14-Shine
DR9 -1.53 dB -13.48 dB 4:52 03-River People (Live)
DR13 0.00 dB -15.11 dB 2:53 04-Teen Town
DR15 -0.06 dB -17.64 dB 3:08 10-Barbary Coast
--------------------------------------------------------------------------------
Number of tracks: 16
Official DR value: DR11
Samplerate: 44100 Hz
Channels: 2
Bits per sample: 24
Bitrate: 1438 kbps
Codec: FLAC
================================================================================
 
Скриншот спектра частот
Приватный:
Нет (DHT включён)
Размер:
833.92 Мб (874,427,447 байт) » файлов: 18
Участники:
0 раздают, 0 качают (0 участников всего)
Внешние участники:
1 раздают, 0 качают (1 участников всего) [ Обновить ]
For power users only: no seeders - write to support@pro-jazz.com. Для power user: нет сидеров - пишите на support@pro-jazz.com.
18:04
131
Нет комментариев. Ваш будет первым!