Вы используете незарегистрированную версию компонента "Вкладки"!

Поиск

[TR24][OF] IBRAHIM MAALOUF - RED & BLACK LIGHT (2015) - 2015 (Fusion, Contemporary Jazz, World)

[TR24][OF] IBRAHIM MAALOUF - RED & BLACK LIGHT (2015) - 2015 (Fusion, Contemporary Jazz, World)
Треклист:
IBRAHIM MAALOUF / RED & BLACK LIGHT
Формат записи/Источник записи: [TR24][OF]
Наличие водяных знаков: Нет
Издание: 2015
Год издания/переиздания диска: 2015
Жанр: Fusion, Contemporary Jazz, World
Издатель(лейбл): Mi'ster Productions
Продолжительность: 42:00
Наличие сканов в содержимом раздачи: Нет
Треклист:
1. Free Spirit
2. Essentielles
3. Goodnight Kiss
4. Elephant's Tooth
5. Red & Black Light
6. Escape
7. Improbable
8. Run the World (Girls)
Контейнер: FLAC (*.flac)
Тип рипа: tracks
Разрядность: 24/48
Формат: WAV (flac.ape.wv)
Количество каналов: 2.0
 
Лог проверки качества
foobar2000 1.3.7 / Замер динамического диапазона (DR) 1.1.1
Дата отчёта: 2016-10-16 22:56:14
--------------------------------------------------------------------------------
Анализ: Ibrahim Maalouf / Red & Black Light
--------------------------------------------------------------------------------
DR Пики RMS Продолжительность трека
--------------------------------------------------------------------------------
DR8 -0.26 дБ -10.46 дБ 7:02 01-Free Spirit
DR7 -0.06 дБ -10.13 дБ 3:42 02-Essentielles
DR7 -0.22 дБ -11.85 дБ 6:49 03-Goodnight Kiss
DR8 -0.35 дБ -10.52 дБ 4:38 04-Elephant's Tooth
DR6 -0.31 дБ -9.97 дБ 3:51 05-Red & Black Light
DR7 -0.20 дБ -10.68 дБ 6:15 06-Escape
DR7 -0.30 дБ -9.72 дБ 5:59 07-Improbable
DR7 -0.37 дБ -10.33 дБ 3:44 08-Run the World (Girls)
--------------------------------------------------------------------------------
Количество треков: 8
Реальные значения DR: DR7
Частота: 48000 Гц
Каналов: 2
Разрядность: 24
Битрейт: 1500 кбит/с
Кодек: FLAC
================================================================================
Источник (релизер): qobuz
Any questions - support@pro-jazz.com.
Есть вопросы - support@pro-jazz.com
05:28
316
Нет комментариев. Ваш будет первым!