Поиск

[TR24][OF] Hank D'Amico Quartet / Aaron Sachs Sextet - We Brought Our Axes (Remastered) - 1955/2014 (Cool)

[TR24][OF] Hank D'Amico Quartet / Aaron Sachs Sextet - We Brought Our Axes (Remastered) - 1955/2014 (Cool)
Треклист:
Hank D'Amico Quartet / Aaron Sachs Sextet - We Brought Our Axes Формат записи/Источник записи: [TR24][OF]
Наличие водяных знаков: Нет
Издание: Remastered
Год издания/переиздания диска: 1955/2014
Жанр: Cool
Издатель (лейбл): Bethlehem Records
Номер по каталогу: BCP7
Продолжительность: 42:37
Наличие сканов в содержимом раздачи: Только обложка альбома
Треклист:
Hank D'Amico Quartet
01. Hank's Holiday (2:52)
02. Billy's Bubble (2:49)
03. Tomorrow (3:02)
04. Gone (2:38)
05. Grasshopper (2:50)
06. Bernie's Tune (2:43)
07. Hank's Dilemma (2:38)
08. The Nearness Of You (2:47)
Aaron Sachs Sextet
09. One Track (2:41)
10. Kingfish (3:33)
11. Helen (3:44)
12. Conversation (3:05)
13. If You Are But A Dream: If You Are But A Dream (3:29)
14. The Bullfrog (3:47)
Hank D'Amico Quartet
Hank D'Amico - cl
Billy Triglia - p
Milt Hinton - b
Charles Smith - d
Rec.: 1954.
Original issue as Hank D'Amico Quartet ‎– Holiday With Hank (Bethlehem ‎BCP 1006).
Aaron Sachs Sextet
Aaron Sachs - ts, cl
Urbie Green - tb
Danny Bank - bars
Barry Galbraith - g
Clyde Lombard - b
Osie Johnson - d
Rec.: New York City, November, 1954.
Original issue as Aaron Sachs - Aaron Sachs Quintette (Bethlehem BCP-1008).
 
 
Об альбоме (сборнике)
This album is split between two American jazz musicians and their bands: it includes 1954 recordings from both clarinetist Hank D'Amico and his quartet and saxophone and clarinet player Aaron Sachs and his sextet. On the original vinyl, each band got one side each, combining sessions from the bandleaders originally released on 10" vinyl. D'Amico's quartet here features Charles Smith on drums, Milt Hinton on bass and pianist Billy Triglia. The musicians in Sachs's sextet are Urbie Green on trombone, Barry Galbraith on guitar, Clyde Lombard on bass, Osie Johnson on drums and Danny Bank on baritone sax.

Контейнер: FLAC (*.flac)
Тип рипа: tracks
Разрядность: 24/96
Количество каналов: 2.0
 
 
Лог проверки качества
foobar2000 1.3.9 / Dynamic Range Meter 1.1.1
log date: 2017-06-19 21:43:15
--------------------------------------------------------------------------------
Analyzed: Aaron Sachs Sextet / We Brought Our Axes (Remastered 2014) (1-6)
          Hank D'Amico Quartet / We Brought Our Axes (Remastered 2014) (7-14)
--------------------------------------------------------------------------------
DR         Peak         RMS     Duration Track
--------------------------------------------------------------------------------
DR13      -1.03 dB   -15.92 dB      2:41 09-One Track
DR11      -5.28 dB   -20.37 dB      3:33 10-Kingfish
DR13      -1.03 dB   -16.02 dB      3:44 11-Helen
DR12      -4.53 dB   -18.48 dB      3:05 12-Conversation
DR10      -4.79 dB   -18.16 dB      3:29 13-If You Are But A Dream: If You Are But A Dream
DR12      -1.03 dB   -16.53 dB      3:47 14-The Bullfrog
DR10      -1.03 dB   -14.32 dB      2:52 01-Hank's Holiday
DR11      -1.03 dB   -13.89 dB      2:49 02-Billy's Bubble
DR9       -3.20 dB   -16.65 dB      3:02 03-Tomorrow
DR9       -2.53 dB   -14.18 dB      2:38 04-Gone
DR9       -2.51 dB   -16.34 dB      2:50 05-Grasshopper
DR10      -1.89 dB   -13.45 dB      2:43 06-Bernie's Tune
DR11      -1.03 dB   -13.97 dB      2:38 07-Hank's Dilemma
DR9       -5.21 dB   -16.68 dB      2:47 08-The Nearness Of You
--------------------------------------------------------------------------------
Number of tracks:  14
Official DR value: DR11
Samplerate:        96000 Hz
Channels:          2
Bits per sample:   24
Bitrate:           1499 kbps
Codec:             FLAC
================================================================================
Источник: prestoclassical.co.uk
По всем вопросам пишите личное сообщение пользователю M0p94ok.
17:13
496
Нет комментариев. Ваш будет первым!