Вы используете незарегистрированную версию компонента "Вкладки"!

Поиск

[TR24][OF] Elvin Bironien (feat. Gregory Privat) - A Quest - 2016 (Contemporary Jazz, Fusion)

[TR24][OF] Elvin Bironien (feat. Gregory Privat) - A Quest - 2016 (Contemporary Jazz, Fusion)
Треклист:
A ' QUEST
ELVIN BIRONIEN
Жанр: Contemporary Jazz, Fusion
Год издания: 2016
Издатель(лейбл): Jazz Family
Номер по каталогу: JF008
Страна исполнителя: France
Аудиокодек: FLAC (*.flac)
Разрядность: 24 bits / 48 kHz
Кол-во каналов: 2
Продолжительность: 54:51
Источник (релизер): WEB
Наличие сканов: front
Треклист:
1. Jamaican School
2. Le chemin
3. Basic’Lude
4. J.S.B
5. A Quest
6. Tea in the Sahara
7. 2 Faces
8. Song of Unity
9. Bison
10. One for Joe
 
Лог проверки качества
foobar2000 1.3.12 / Замер динамического диапазона (DR) 1.1.1
Дата отчёта: 2016-12-26 20:34:22
--------------------------------------------------------------------------------
Анализ: Elvin Bironien / A Quest
--------------------------------------------------------------------------------
DR Пики RMS Продолжительность трека
--------------------------------------------------------------------------------
DR8 -0.01 дБ -9.16 дБ 4:41 01-Jamaican School
DR7 -0.01 дБ -9.25 дБ 5:08 02-Le chemin
DR10 -0.03 дБ -17.01 дБ 1:08 03-Basic'Lude
DR8 -0.01 дБ -9.79 дБ 6:12 04-J.S.B
DR8 -0.02 дБ -10.70 дБ 4:07 05-A Quest
DR9 -0.02 дБ -10.68 дБ 6:18 06-Tea in the Sahara
DR8 -0.01 дБ -9.43 дБ 6:41 07-2 Faces
DR9 -0.02 дБ -11.52 дБ 6:10 08-Song of Unity (feat. Nicolas Pelage)
DR7 -0.01 дБ -9.31 дБ 5:07 09-Bison
DR7 -0.01 дБ -9.77 дБ 9:19 10-One for Joe
--------------------------------------------------------------------------------
Количество треков: 10
Реальные значения DR: DR8
Частота: 48000 Гц
Каналов: 2
Разрядность: 24
Битрейт: 1753 кбит/с
Кодек: FLAC
================================================================================
 
Состав

Elvin Bironien - bass, composer
Grégory Privat - piano, keyboards
Ralph Lavital - guitar
Pierre Alain Tocanier - drums
Nicolas Pelage - vocals (8)
Any questions - support@pro-jazz.com. Есть вопросы - support@pro-jazz.com
06:56
351
Нет комментариев. Ваш будет первым!