Вы используете незарегистрированную версию компонента "Вкладки"!

Поиск

[TR24][OF] Albert Mangelsdorff, Pierre Favre, Joachim Kuhn, Gunter Hampel - Solo Now - 1976/2015 (Avant-Garde Jazz, Free Jazz)

[TR24][OF] Albert Mangelsdorff, Pierre Favre, Joachim Kuhn, Gunter Hampel - Solo Now - 1976/2015 (Avant-Garde Jazz, Free Jazz)
Треклист:
Albert Mangelsdorff, Pierre Favre, Joachim Kühn, Gunter Hampel
Solo Now Формат записи/Источник записи: [TR24][OF]
Наличие водяных знаков: Нет
Год издания/переиздания диска: 1976/2015
Жанр: Avant-Garde Jazz, Free Jazz
Издатель (лейбл): MPS Records
Продолжительность: 48:27
Наличие сканов в содержимом раздачи: Только обложка альбома
Треклист:
01. Rainbow Road (4:12)
02. Ant Steps On The Elephant's Toe (6:08)
03. Take Your Hit Kit (4:38)
04. Solo Suite Gunter: Schwwweeet (10:23)
   • My New Friend, No. 294
   • Freedom Of The Univers, No. 284
   • Kisses, No. 291
   • Hot, No. 293
05. Von Schnee (Fuge Mit Orgelpunkt) (5:00)
06. The Barriers On The Way To You (2:44)
07. In A Sentimental Mood (4:54)
08. Supraconductivity (2:25)
09. Medieval Percussion Song (4:08)
10. Ringelvier (3:56)
Personnel:
Joachim Kühn - piano
Albert Mangelsdorff - trombone
Gunter Hampel - flute, bass clarinet, vibraphone
Pierre Favre - drums, percussion
Rec.: MPS Records, Villingen, Germany, February 9 & 10, 1976.
 
 
Об альбоме
A very unusual session for MPS – one that features mostly solo work by the four players named as 'leader' – Albert Mangelsdorff, Gunter Hampel, Joachim Kuhn, and Pierre Favre – each of whom get a few tracks to themselves, then join up for a few more duo tracks and one more quartet number.
The solo work is especially nice – never too free our 'out', and done with the same sense of swing and playful exploration as some of Mangelsdorff's solo work on other records for the label. Gunter Hampel sounds especially nice on the track 'Schwwweeet', which features passages on flute and vibes – and other tracks include 'Fuga Mit Orgelpunkt Von Schnee' and 'Medieval Percussion Song' by Pierre Favre, 'Ant Steps On An Elephant's Toe' and 'Supraconductivity' by Albert Mangelsdorff, 'Rainbow Road' and 'In A Sentimental Mood' by Joachim Kuhn, 'The Barriers On The Way To You' by Hampel & Favre, 'Take Your Hit Kit' by Kuhn & Mangelsdorff, and 'Ringelvier' by the whole quartet.

Контейнер: FLAC (*.flac)
Тип рипа: tracks
Разрядность: 24/88,2
Формат: PCM
Количество каналов: 2.0
 
Лог проверки качества
foobar2000 1.3.9 / Dynamic Range Meter 1.1.1
log date: 2017-11-07 22:19:48
--------------------------------------------------------------------------------
Analyzed: Albert Mangelsdorff, Pierre Favre, Joachim Kühn, Gunter Hampel / Solo Now
--------------------------------------------------------------------------------
DR Peak RMS Duration Track
--------------------------------------------------------------------------------
DR10 -5.90 dB -18.87 dB 4:12 01-Rainbow Road
DR12 -5.53 dB -22.57 dB 6:08 02-Ant Steps On The Elephant's Toe
DR13 -4.15 dB -22.00 dB 4:38 03-Take Your Hit Kit
DR12 -4.49 dB -21.60 dB 10:23 04-Solo Suite Gunter - Schwwweeet: My New Friend, No. 294 / Freedom Of The Univers, No. 284 / Kisses, No. 291 / Hot, No. 293
DR17 -4.30 dB -26.72 dB 5:00 05-Von Schnee (Fuge Mit Orgelpunkt)
DR14 -0.80 dB -20.71 dB 2:44 06-The Barriers On The Way To You
DR10 -4.54 dB -18.64 dB 4:54 07-In A Sentimental Mood
DR14 -4.29 dB -23.76 dB 2:25 08-Supraconductivity
DR18 -5.93 dB -30.23 dB 4:08 09-Medieval Percussion Song
DR11 -2.19 dB -19.54 dB 3:56 10-Ringelvier
--------------------------------------------------------------------------------
Number of tracks: 10
Official DR value: DR13
Samplerate: 88200 Hz
Channels: 2
Bits per sample: 24
Bitrate: 2506 kbps
Codec: FLAC
================================================================================
Источник: highresaudio.com
Any questions - support@pro-jazz.com. Есть вопросы - support@pro-jazz.com
02:32
441
Нет комментариев. Ваш будет первым!