Вы используете незарегистрированную версию компонента "Вкладки"!

Поиск

(Third Stream, Chamber Jazz) VA - Chopinderful!: Chopin Meets Jazz (Eugen Cicero, European Jazz Trio, Mal Waldron, Louis van Dijk, Carl Orrje, Roger Kellaway, Karel Boehlee) - 2010 (Japan Edition), FLAC (image+.cue), lossless

(Third Stream, Chamber Jazz) VA - Chopinderful!: Chopin Meets Jazz (Eugen Cicero, European Jazz Trio, Mal Waldron, Louis van Dijk, Carl Orrje, Roger Kellaway, Karel Boehlee) - 2010 (Japan Edition), FLAC (image+.cue), lossless
Треклист:
Chopinderful!: Chopin Meets Jazz
Жанр: Third Stream, Chamber Jazz
Страна-производитель диска: Япония
Год издания: 2010
Издатель (лейбл): M&I
Номер по каталогу: MYCJ-30562
Аудиокодек: FLAC (*.flac)
Тип рипа: image+.cue
Битрейт аудио: lossless
Продолжительность: 68:03
Источник (релизер): диск из моей коллекции
Наличие сканов в содержимом раздачи: да
Треклист:
01. Eugen Cicero Trio - Nocturne No.2 op.9-2 (4:30)
02. European Jazz Trio - Prelude No.15 op.28-15 (5:31)
03. Mal Waldron - Ballade No.1 op.23 (9:34)
04. Louis van Dijk Trio - Prelude No.4 op.28-4 (6:30)
05. European Jazz Trio - Etude No.3 op.10-3 (5:00)
06. Carl Orrje - Nocturne No.9 op.32-1 (5:22)
07. European Jazz Trio - Polonaise No.6 op.53 (4:25)
08. Carl Orrje - Impromptu No.1 op.29 (3:41)
09. European Jazz Trio - Valse No.9 op.69-1 (5:01)
10. Mal Waldron - Nocturne No.6 op.15-3 (9:09)
11. Roger Kellaway - Fantaisie Impromptu op.66 (4:06)
12. Karel Boehlee Trio - Nocturne No.2 op.9-2 (5:17)
 
Лог создания рипа
Exact Audio Copy V1.0 beta 3 from 29. August 2011
EAC extraction logfile from 15. September 2013, 1:59
Various / Chopinderful!: Chopin Meets Jazz
Used drive : ASUS DRW-24B1LT Adapter: 5 ID: 1
Read mode : Secure
Utilize accurate stream : Yes
Defeat audio cache : Yes
Make use of C2 pointers : No
Read offset correction : 6
Overread into Lead-In and Lead-Out : No
Fill up missing offset samples with silence : Yes
Delete leading and trailing silent blocks : No
Null samples used in CRC calculations : Yes
Used interface : Native Win32 interface for Win NT & 2000
Used output format : User Defined Encoder
Selected bitrate : 768 kBit/s
Quality : High
Add ID3 tag : No
Command line compressor : C:\Program Files\Exact Audio Copy\Flac\flac.exe
Additional command line options : -8 -V -T "ARTIST=%artist%" -T "TITLE=%title%" -T "ALBUM=%albumtitle%" -T "DATE=%year%" -T "TRACKNUMBER=%tracknr%" -T "TOTALTRACKS=%numtracks%" -T "GENRE=%genre%" -T "ALBUMARTIST=%albumartist%" -T "ALBUM ARTIST=%albumartist%" -T "COMMENT=EAC Secure Mode, Test & Copy, AccurateRip, FLAC -8" %source%
TOC of the extracted CD
Track | Start | Length | Start sector | End sector
---------------------------------------------------------
1 | 0:00.00 | 4:29.64 | 0 | 20238
2 | 4:29.64 | 5:31.02 | 20239 | 45065
3 | 10:00.66 | 9:33.42 | 45066 | 88082
4 | 19:34.33 | 6:29.56 | 88083 | 117313
5 | 26:04.14 | 5:00.20 | 117314 | 139833
6 | 31:04.34 | 5:21.39 | 139834 | 163947
7 | 36:25.73 | 4:24.60 | 163948 | 183807
8 | 40:50.58 | 3:40.44 | 183808 | 200351
9 | 44:31.27 | 5:00.48 | 200352 | 222899
10 | 49:32.00 | 9:08.56 | 222900 | 264055
11 | 58:40.56 | 4:05.38 | 264056 | 282468
12 | 62:46.19 | 5:17.11 | 282469 | 306254
Range status and errors
Selected range
Filename F:\audio\VA - Chopinderful!- Chopin Meets Jazz.wav
Peak level 99.2 %
Extraction speed 6.3 X
Range quality 100.0 %
Test CRC 16BD43BD
Copy CRC 16BD43BD
Copy OK
No errors occurred
AccurateRip summary
Track 1 accurately ripped (confidence 2) [0AA1A7D9] (AR v1)
Track 2 accurately ripped (confidence 2) [0559CA92] (AR v1)
Track 3 accurately ripped (confidence 2) [E76BDB12] (AR v1)
Track 4 accurately ripped (confidence 2) [0A2DEC57] (AR v1)
Track 5 accurately ripped (confidence 2) [309C2EE2] (AR v1)
Track 6 accurately ripped (confidence 2) [972BE7FD] (AR v1)
Track 7 accurately ripped (confidence 2) [96166CE2] (AR v1)
Track 8 accurately ripped (confidence 2) [160DD31A] (AR v1)
Track 9 accurately ripped (confidence 2) [005FF407] (AR v1)
Track 10 accurately ripped (confidence 2) [39E6C674] (AR v1)
Track 11 accurately ripped (confidence 2) [F41753D1] (AR v1)
Track 12 accurately ripped (confidence 2) [7573283B] (AR v1)
All tracks accurately ripped
End of status report
---- CUETools DB Plugin V2.1.3
[CTDB TOCID: Wi3DakVG8UuNvLoxs3OiLma1b8s-] found, Submit result: already submitted
[f19dafef] (1/1) Accurately ripped
==== Log checksum BBEA14DDC3E056FD29C2DA76AE51635D1E69C75A7D96187872CFFD46AFC50B78 ====
 
Содержание индексной карты (.CUE)
REM GENRE Jazz
REM DATE 2010
REM DISCID B50FF30C
REM COMMENT "ExactAudioCopy v1.0b3"
PERFORMER "Various"
TITLE "Chopinderful!: Chopin Meets Jazz"
FILE "VA - Chopinderful!- Chopin Meets Jazz.wav" WAVE
TRACK 01 AUDIO
TITLE "Nocturne No.2 op.9-2"
PERFORMER "Eugen Cicero Trio"
INDEX 01 00:00:00
TRACK 02 AUDIO
TITLE "Prelude No.15 op.28-15"
PERFORMER "European Jazz Trio"
INDEX 00 04:26:06
INDEX 01 04:29:64
TRACK 03 AUDIO
TITLE "Ballade No.1 op.23"
PERFORMER "Mal Waldron"
INDEX 00 09:57:22
INDEX 01 10:00:66
TRACK 04 AUDIO
TITLE "Prelude No.4 op.28-4"
PERFORMER "Louis van Dijk Trio"
INDEX 00 19:30:64
INDEX 01 19:34:33
TRACK 05 AUDIO
TITLE "Etude No.3 op.10-3"
PERFORMER "European Jazz Trio"
INDEX 00 25:59:45
INDEX 01 26:04:14
TRACK 06 AUDIO
TITLE "Nocturne No.9 op.32-1"
PERFORMER "Carl Orrje"
INDEX 00 31:00:65
INDEX 01 31:04:34
TRACK 07 AUDIO
TITLE "Polonaise No.6 op.53"
PERFORMER "European Jazz Trio"
INDEX 00 36:22:29
INDEX 01 36:25:73
TRACK 08 AUDIO
TITLE "Impromptu No.1 op.29"
PERFORMER "Carl Orrje"
INDEX 00 40:46:14
INDEX 01 40:50:58
TRACK 09 AUDIO
TITLE "Valse No.9 op.69-1"
PERFORMER "European Jazz Trio"
INDEX 00 44:27:58
INDEX 01 44:31:27
TRACK 10 AUDIO
TITLE "Nocturne No.6 op.15-3"
PERFORMER "Mal Waldron"
INDEX 00 49:28:31
INDEX 01 49:32:00
TRACK 11 AUDIO
TITLE "Fantaisie Impromptu op.66"
PERFORMER "Roger Kellaway"
INDEX 00 58:37:12
INDEX 01 58:40:56
TRACK 12 AUDIO
TITLE "Nocturne No.2 op.9-2"
PERFORMER "Karel Boehlee Trio"
INDEX 00 62:41:50
INDEX 01 62:46:19
 
Отчет CUETools
[CUETools log; Date: 15.09.2013 2:01:41; Version: 2.1.4]
[CTDB TOCID: Wi3DakVG8UuNvLoxs3OiLma1b8s-] found.
Track | CTDB Status
1 | (1/1) Accurately ripped
2 | (1/1) Accurately ripped
3 | (1/1) Accurately ripped
4 | (1/1) Accurately ripped
5 | (1/1) Accurately ripped
6 | (1/1) Accurately ripped
7 | (1/1) Accurately ripped
8 | (1/1) Accurately ripped
9 | (1/1) Accurately ripped
10 | (1/1) Accurately ripped
11 | (1/1) Accurately ripped
12 | (1/1) Accurately ripped
[AccurateRip ID: 001f0a94-012013b2-b50ff30c] found.
Track [ CRC | V2 ] Status
01 [0aa1a7d9|1a249301] (2+0/2) Accurately ripped
02 [0559ca92|f06a7ae0] (2+0/2) Accurately ripped
03 [e76bdb12|d5573a94] (2+0/2) Accurately ripped
04 [0a2dec57|6a705fc8] (2+0/2) Accurately ripped
05 [309c2ee2|18e93911] (2+0/2) Accurately ripped
06 [972be7fd|0d78eb27] (2+0/2) Accurately ripped
07 [96166ce2|e78e01da] (2+0/2) Accurately ripped
08 [160dd31a|bac3fc82] (2+0/2) Accurately ripped
09 [005ff407|82beb904] (2+0/2) Accurately ripped
10 [39e6c674|83dc63cf] (2+0/2) Accurately ripped
11 [f41753d1|5e0233a4] (2+0/2) Accurately ripped
12 [7573283b|e94077fa] (2+0/2) Accurately ripped
Track Peak [ CRC32 ] [W/O NULL] [ LOG ]
-- 99,2 [16BD43BD] [D317F04D] CRC32
01 96,3 [B72912C1] [24C1EF01]
02 92,2 [ABCCF3C7] [0F077199]
03 99,2 [6AC38298] [A5CE1C46]
04 88,2 [C7807D79] [D3EDF70C]
05 93,3 [72D4D73E] [9AB9E5BF]
06 98,8 [3096B552] [26E6B58B]
07 88,1 [ABAC3044] [61292131]
08 99,1 [D993B12B] [361E2977]
09 90,1 [47ABE1F7] [D5370622]
10 99,2 [10626673] [5FF96593]
11 93,3 [EA283EF7] [BD956432]
12 86,1 [77844C32] [4EC5C9A6]
Any questions - support@pro-jazz.com. Есть вопросы - support@pro-jazz.com
02:33
277
Нет комментариев. Ваш будет первым!