Поиск

(Tango, World Fusion, Post-Bop) Javier Girotto e Aires Tango - Origenes - 2001, FLAC (image+.cue), lossless

(Tango, World Fusion, Post-Bop) Javier Girotto e Aires Tango - Origenes - 2001, FLAC (image+.cue), lossless
Треклист:
Javier Girotto e Aires Tango - Origenes
Жанр: Tango, World Fusion, Post-Bop
Страна-производитель диска: Италия
Год издания: 2001
Издатель (лейбл): Il Manifesto
Номер по каталогу: CD 080
Аудиокодек: FLAC (*.flac)
Тип рипа: image+.cue
Битрейт аудио: lossless
Продолжительность: 51:55
Источник (релизер): minnie (hqshare)
Наличие сканов в содержимом раздачи: да
Треклист:
01. Homenaje a Astor (Girotto) - 6:07
02. Interludio 1 (Girotto) - 1:23
03. El viaje (Girotto) - 5:32
04. Interludio 2 (Girotto) - 1:41
05. Passione in fuga (Girotto) - 5:24
06. Zamba para un amigo (Girotto) - 5:21
07. Aires Tango (Girotto) - 5:27
08. Interludio 3 (Girotto) - 1:36
09. Mi Viejo (Girotto) - 5:34
10. Caffe Roma (Girotto) - 1:59
11. Interludio 4 "Kilombo" (Girotto) - 0:31
12. Novedad (Girotto) - 4:01
13. Malvinas (Girotto) - 7:18
Состав:
Javier Girotto - soprano saxophone, baritone saxophone, quenas
Alessandro Gwis - keyboards, sampler
Marco Siniscalco - electric bass
Michele Rabbia - percussion
with
Peppe Servillo - vocals (#12)
Natalio Mangalavite - vocals, keyboards (#6)
Recorded at Sonic di Roma in June 2001.
 
Лог создания рипа
EAC extraction logfile from 29. July 2006, 18:43 for CD
Javier Girotto e Aires Tango / Origenes
Used drive : PLEXTOR CD-R PREMIUM Adapter: 3 ID: 0
Read mode : Secure with NO C2, accurate stream, disable cache
Read offset correction : 30
Overread into Lead-In and Lead-Out : No
Used output format : Internal WAV Routines
44.100 Hz; 16 Bit; Stereo
Use compression offset : 30
Other options :
Fill up missing offset samples with silence : Yes
Delete leading and trailing silent blocks : No
Installed external ASPI interface
Range status and errors
Selected range
Filename C:\Javier Girotto-Aires Tango - Origenes\Javier Girotto e Aires Tango - Origenes.wav
Peak level 100.0 %
Range quality 99.9 %
CRC B3FE4FE9
Copy OK
No errors occured
End of status report
 
Содержание индексной карты (.CUE)
REM GENRE Jazz
REM DATE 2001
REM DISCID D00C2B0D
REM COMMENT "ExactAudioCopy v0.95b3"
PERFORMER "Javier Girotto e Aires Tango"
TITLE "Origenes"
FILE "Javier Girotto e Aires Tango - Origenes.wav" WAVE
TRACK 01 AUDIO
TITLE "Homenaje a Astor"
PERFORMER "Javier Girotto e Aires Tango"
INDEX 01 00:00:00
TRACK 02 AUDIO
TITLE "Interludio 1"
PERFORMER "Javier Girotto e Aires Tango"
INDEX 01 06:07:36
TRACK 03 AUDIO
TITLE "El viaje"
PERFORMER "Javier Girotto e Aires Tango"
INDEX 01 07:30:14
TRACK 04 AUDIO
TITLE "Interludio 2"
PERFORMER "Javier Girotto e Aires Tango"
INDEX 01 13:02:10
TRACK 05 AUDIO
TITLE "Passione in fuga"
PERFORMER "Javier Girotto e Aires Tango"
INDEX 01 14:43:23
TRACK 06 AUDIO
TITLE "Zamba para un amigo"
PERFORMER "Javier Girotto e Aires Tango"
INDEX 01 20:07:45
TRACK 07 AUDIO
TITLE "Aires Tango"
PERFORMER "Javier Girotto e Aires Tango"
INDEX 01 25:29:04
TRACK 08 AUDIO
TITLE "Interludio 3"
PERFORMER "Javier Girotto e Aires Tango"
INDEX 00 30:55:10
INDEX 01 30:56:16
TRACK 09 AUDIO
TITLE "Mi Viejo"
PERFORMER "Javier Girotto e Aires Tango"
INDEX 01 32:32:50
TRACK 10 AUDIO
TITLE "Caffe Roma"
PERFORMER "Javier Girotto e Aires Tango"
INDEX 01 38:06:60
TRACK 11 AUDIO
TITLE "Interludio 4 'Kilombo'"
PERFORMER "Javier Girotto e Aires Tango"
INDEX 00 40:03:52
INDEX 01 40:05:26
TRACK 12 AUDIO
TITLE "Novedad"
PERFORMER "Javier Girotto e Aires Tango"
INDEX 01 40:36:32
TRACK 13 AUDIO
TITLE "Malvinas"
PERFORMER "Javier Girotto e Aires Tango"
INDEX 00 44:36:04
INDEX 01 44:37:04
 
Отчет CUETools
[CUETools log; Date: 04.03.2013 1:13:06; Version: 2.1.4]
[CTDB TOCID: VSYpHj3sPEL.ITXiy_ph2yVATuI-] disk not present in database.
[AccurateRip ID: 00191e7a-00f8506c-d00c2b0d] found.
Track [ CRC | V2 ] Status
01 [813f3adb|69d799c1] (0+0/2) No match
02 [d37e17d6|1d9eed40] (0+0/2) No match
03 [0079e5ea|1adde656] (0+0/2) No match
04 [733e3c20|6c7e6551] (0+0/2) No match
05 [fd461114|1b123c32] (0+0/2) No match
06 [5710f948|ef28c538] (0+0/2) No match
07 [dd7a8651|784b13b2] (0+0/2) No match
08 [ac268d14|8c43327d] (0+0/2) No match
09 [d613c495|28e5e5aa] (0+0/2) No match
10 [1fa4dfca|973e3bc8] (0+0/2) No match
11 [c0d27bf9|a183c513] (0+0/2) No match
12 [e4dcd92a|545ad3e1] (0+0/2) No match
13 [22948495|4b36c393] (0+0/0) No match
Offsetted by 676:
01 [3f3da66b] (2/2) Accurately ripped
02 [a0b2cffc] (2/2) Accurately ripped
03 [176021e0] (2/2) Accurately ripped
04 [2deaccf4] (2/2) Accurately ripped
05 [43c71284] (2/2) Accurately ripped
06 [18b74424] (2/2) Accurately ripped
07 [970965c9] (2/2) Accurately ripped
08 [386b4fd3] (2/2) Accurately ripped
09 [0b05fe3e] (2/2) Accurately ripped
10 [7f5d669a] (2/2) Accurately ripped
11 [d804ee45] (2/2) Accurately ripped
12 [c74528b2] (2/2) Accurately ripped
13 [de5d63d6] (0/0) No match (V2 was not tested)
Track Peak [ CRC32 ] [W/O NULL] [ LOG ]
-- 100,0 [F29BA0C7] [B3FE4FE9] W/O NULL
01 100,0 [9BCCA726] [68AECF86]
02 80,4 [1E3F9E71] [D026709E]
03 100,0 [D6CF714F] [88EB22BA]
04 83,0 [D0D84E7B] [6239C91A]
05 100,0 [ABDED981] [FB36295A]
06 100,0 [D5494A63] [2576746F]
07 100,0 [FE3194AD] [9EE5BCF5]
08 86,6 [AF2E617F] [56AF2312]
09 100,0 [54BDDA70] [48C56D69]
10 77,5 [4D109931] [5995303F]
11 100,0 [5F088BC1] [4D0AB522]
12 100,0 [5B7E1544] [24F0719D]
13 100,0 [2B70C625] [413B876B]
 
Об альбоме
ORIGENES è il quinto album della formazione italo-argentina. La musica degli Aires Tango rispecchia fedelmente i tratti della melodia tangueira e dell'improvvisazione jazzistica. Il risultato è una sorta di "Tango trattato", dalle caratteristiche spiccatamente latine per le melodie ed i ritmi che lo animano, ma meno vincolato dai canoni del tango tradizionale e perciò terreno fertile per un'improvvisazione d'ispirazione jazz; in questo modo gli Aires giungono a una musica di notevole libertà espressiva e di grande fascino, nella quale gli echi del passato si fondono con le istanze del linguaggio musicale più moderno.
In ORIGENES sono presenti temi inediti e riletture di brani già pubblicati, rivisitati però alla luce delle esperienze maturate da AIRES TANGO. In particolare Malvinas, brano che chiude il cd, è il primo pezzo scritto da Girotto espressamente per il gruppo, ed è dedicato alla memoria di aluni amici caduti nella guerra delle Isole Falklands, che molti ricorderanno essere venute tristemente alla ribalta nelle cronache nei primi anni ottanta.
Due gli ospiti che con grande passione collaborano in questo album:
NATALIO MANGALAVITE, voce e tastiere, partecipa al brano Zamba para un amigo, ispirato ad un ritmo popolare argentino, la Zamba appunto, un 3/4 lento;
PEPPE SERVILLO – voce – partecipa come voce solista al brano Novedad, composizione già presente nel repertorio di AIRES TANGO e nel cd precedente del gruppo “Antologia del ‘900”; In questa nuova versione Servillo, voce solista e leader degli AVION TRAVEL, è autore dello splendido testo che si insinua nella struggente melodia della ballata. In questo brano Girotto suona le Quenas, un particolare flauto dal tipico timbro andino, conferendo al tutto una grazia e una poesia particolari.
Tutto il disco è attraversato da una serie di Interludi, dei brani completamente improvvisati che ricalcano ciò che avviene durante i concerti, nei passaggi di collegamento da un tema all’altro.
Взамен ушедшей в архив.
10:37
327
Нет комментариев. Ваш будет первым!