Поиск

(Tango Nuevo, World Fusion, Ethnic Jazz) [CD] Las Sombras - Casino Tango Noir - 2012, FLAC (image+.cue), lossless

(Tango Nuevo, World Fusion, Ethnic Jazz) [CD] Las Sombras - Casino Tango Noir - 2012, FLAC (image+.cue), lossless
Треклист:
Las Sombras / Casino Tango Noir
Жанр: Tango Nuevo, World Fusion, Ethnic Jazz
Носитель: CD, Album
Страна-производитель диска: Germany
Год издания: 2012
Дата выхода оригинального издания: March 30, 2012
Издатель (лейбл): GLM Music (Fine Music)
Номер по каталогу: FM 160-2
Страна: Germany
Аудиокодек: FLAC (*.flac)
Тип рипа: image+.cue
Битрейт аудио: lossless
Продолжительность: 01:00:32
Источник (релизер): Собственный диск
Наличие сканов в содержимом раздачи: Да (600dpi, *.jpeg, booklet 600dpi, *.jpeg)
Треклист:
[02:43] 01. Sala vacía (Bernhard Sinz)
[03:37] 02. Village Inn (Henry Mancini)
[03:06] 03. Tango Casino Noir (S. Graf / F. Gutmann)
[04:16] 04. Modinha (Heitor Villa-Lobos)
[04:28] 05. Gallo Ciego (Augustin Bardi)
[03:15] 06. Hijo de la luna (José María Cano)
[04:00] 07. El día que me quieras (Carlos Gardel)
[04:47] 08. Royal flush (Burkhard Dersch)
[02:59] 09. El extranjero (Simone Graf)
[05:17] 10. Blue milonga (Bernhard Sinz)
[03:30] 11. El esquinazo (Ángel Villoldo / arr. Bernhard Sinz)
[05:59] 12. St. Germain 3.00 AM (Graham Lynch)
[04:46] 13. El Puerto (Isaac Albéniz)
[03:01] 14. Comme il faut (Eduardo Arolas)
[04:14] 15. Les yeux fermés (Bernhard Sinz)
 
Лог создания рипа
Exact Audio Copy V1.0 beta 3 from 29. August 2011
EAC extraction logfile from 10. June 2014, 1:29
Las Sombras / Tango Café
Used drive : Optiarc DVD RW AD-7280S Adapter: 1 ID: 0
Read mode : Secure
Utilize accurate stream : Yes
Defeat audio cache : Yes
Make use of C2 pointers : No
Read offset correction : 48
Overread into Lead-In and Lead-Out : No
Fill up missing offset samples with silence : Yes
Delete leading and trailing silent blocks : No
Null samples used in CRC calculations : Yes
Used interface : Native Win32 interface for Win NT & 2000
Used output format : User Defined Encoder
Selected bitrate : 1024 kBit/s
Quality : High
Add ID3 tag : No
Command line compressor : C:\Program Files (x86)\Exact Audio Copy\Flac\flac.exe
Additional command line options : -V -8 -T "Date=%year%" -T "Genre=%genre%" %source%
TOC of the extracted CD
Track | Start | Length | Start sector | End sector
---------------------------------------------------------
1 | 0:00.00 | 3:38.50 | 0 | 16399
2 | 3:38.50 | 2:12.62 | 16400 | 26361
3 | 5:51.37 | 3:18.50 | 26362 | 41261
4 | 9:10.12 | 2:32.24 | 41262 | 52685
5 | 11:42.36 | 6:14.43 | 52686 | 80778
6 | 17:57.04 | 3:34.55 | 80779 | 96883
7 | 21:31.59 | 3:00.58 | 96884 | 110441
8 | 24:32.42 | 2:31.33 | 110442 | 121799
9 | 27:04.00 | 3:42.72 | 121800 | 138521
10 | 30:46.72 | 5:39.26 | 138522 | 163972
11 | 36:26.23 | 4:15.58 | 163973 | 183155
12 | 40:42.06 | 3:36.63 | 183156 | 199418
13 | 44:18.69 | 2:53.12 | 199419 | 212405
14 | 47:12.06 | 2:19.65 | 212406 | 222895
15 | 49:31.71 | 3:46.51 | 222896 | 239896
16 | 53:18.47 | 5:01.74 | 239897 | 262545
17 | 58:20.46 | 5:13.49 | 262546 | 286069
18 | 63:34.20 | 6:53.38 | 286070 | 317082
Range status and errors
Selected range
Filename D:\Music\Instrumental\Las Sombras\Las Sombras - Tango Café.wav
Peak level 98.8 %
Extraction speed 4.5 X
Range quality 100.0 %
Test CRC 25887495
Copy CRC 25887495
Copy OK
No errors occurred
AccurateRip summary
Track 1 accurately ripped (confidence 7) [91298009] (AR v2)
Track 2 accurately ripped (confidence 7) [CB5243C0] (AR v2)
Track 3 accurately ripped (confidence 7) [41EFE144] (AR v2)
Track 4 accurately ripped (confidence 7) [8EFF2D05] (AR v2)
Track 5 accurately ripped (confidence 7) [544B00B3] (AR v2)
Track 6 accurately ripped (confidence 7) [901E1062] (AR v2)
Track 7 accurately ripped (confidence 7) [2C60247D] (AR v2)
Track 8 accurately ripped (confidence 7) [992D8CD6] (AR v2)
Track 9 accurately ripped (confidence 7) [B2183B0B] (AR v2)
Track 10 accurately ripped (confidence 7) [99FA0F70] (AR v2)
Track 11 accurately ripped (confidence 7) [4D249120] (AR v2)
Track 12 accurately ripped (confidence 7) [81BE46E6] (AR v2)
Track 13 accurately ripped (confidence 7) [D1AC4451] (AR v2)
Track 14 accurately ripped (confidence 7) [5FE2BF4A] (AR v2)
Track 15 accurately ripped (confidence 7) [EB4A3125] (AR v2)
Track 16 accurately ripped (confidence 7) [1B2BDDE1] (AR v2)
Track 17 accurately ripped (confidence 7) [59357459] (AR v2)
Track 18 accurately ripped (confidence 7) [63E3B49E] (AR v2)
All tracks accurately ripped
End of status report
---- CUETools DB Plugin V2.1.3
[CTDB TOCID: CSM430px670rhMOvlMlB0XVZEbA-] found, Submit result: CSM430px670rhMOvlMlB0XVZEbA- has been confirmed
[90321c12] (7/7) Accurately ripped
==== Log checksum C41852BFA6D0E835427088DE8E546481E8988917338A47F746EEF4CE5DBC4BAF ====
 
Содержание индексной карты (.CUE)
REM GENRE Tango Nuevo
REM DATE 2010
REM DISCID F2108312
REM COMMENT ExactAudioCopy v1.0b3
PERFORMER "Las Sombras"
TITLE "Tango Café"
FILE "Las Sombras - Tango Café.flac" WAVE
TRACK 01 AUDIO
TITLE "Coultergeist"
FLAGS DCP
INDEX 01 00:00:00
TRACK 02 AUDIO
TITLE "Milonga de mis amores"
FLAGS DCP
INDEX 00 03:35:50
INDEX 01 03:38:50
TRACK 03 AUDIO
TITLE "Melancolico "
FLAGS DCP
INDEX 00 05:48:37
INDEX 01 05:51:37
TRACK 04 AUDIO
TITLE "Habanera"
FLAGS DCP
INDEX 00 09:07:12
INDEX 01 09:10:12
TRACK 05 AUDIO
TITLE "Milonga del ángel"
FLAGS DCP
INDEX 00 11:39:36
INDEX 01 11:42:36
TRACK 06 AUDIO
TITLE "La valse d´Amélie"
FLAGS DCP
INDEX 00 17:54:04
INDEX 01 17:57:04
TRACK 07 AUDIO
TITLE "It had better be tonight"
FLAGS DCP
INDEX 00 21:28:59
INDEX 01 21:31:59
TRACK 08 AUDIO
TITLE "La trampera"
FLAGS DCP
INDEX 00 24:30:47
INDEX 01 24:32:42
TRACK 09 AUDIO
TITLE "Francia"
FLAGS DCP
INDEX 00 27:01:25
INDEX 01 27:04:00
TRACK 10 AUDIO
TITLE "Eurydice sings"
FLAGS DCP
INDEX 00 30:44:70
INDEX 01 30:46:72
TRACK 11 AUDIO
TITLE "Mélange à trois"
FLAGS DCP
INDEX 00 36:23:39
INDEX 01 36:26:23
TRACK 12 AUDIO
TITLE "Danzarin"
FLAGS DCP
INDEX 00 40:39:50
INDEX 01 40:42:06
TRACK 13 AUDIO
TITLE "Jacinto Chiclana"
FLAGS DCP
INDEX 00 44:16:23
INDEX 01 44:18:69
TRACK 14 AUDIO
TITLE "Alice (Tango büro)"
FLAGS DCP
INDEX 00 47:09:25
INDEX 01 47:12:06
TRACK 15 AUDIO
TITLE "Roma Termini - Chiquilín de Bachín"
FLAGS DCP
INDEX 00 49:28:50
INDEX 01 49:31:71
TRACK 16 AUDIO
TITLE "20. Sept. 1971 - La valse d´ Amélie"
FLAGS DCP
INDEX 00 53:15:48
INDEX 01 53:18:47
TRACK 17 AUDIO
TITLE "Madelaine - Francia"
FLAGS DCP
INDEX 00 58:17:47
INDEX 01 58:20:46
TRACK 18 AUDIO
TITLE "Café Montbac - Coultergeist"
FLAGS DCP
INDEX 00 63:31:44
INDEX 01 63:34:20
 
Лог проверки качества
-----------------------
DON'T MODIFY THIS FILE
-----------------------
PERFORMER: auCDtect Task Manager, ver. 1.6.0 RC1 build 1.6.0.1
Copyright (c) 2008-2010 y-soft. All rights reserved
http://y-soft.org
ANALYZER: auCDtect: CD records authenticity detector, version 0.8.2
Copyright (c) 2004 Oleg Berngardt. All rights reserved.
Copyright (c) 2004 Alexander Djourik. All rights reserved.
FILE: Las Sombras - Tango Café.flac
Size: 341633287 Hash: 91D1FCFDCEEE8B7B0367E37F9E138B4A Accuracy: -m0
Conclusion: CDDA 100%
Signature: F36DB21B4B2D0C3DABB0C5B7FB281C755B72748B
 
Об исполнителе (группе)
LAS SOMBRAS
... das sind die vier Herren um die Flötistin Simone Graf, die - bereits als Kind vom Tango auf alten Schellackplatten ihres Großvaters fasziniert - das Ensemble 2006 gründete und den typischen Klängen des Tangos (Vibrandoneon - Akkordeon - Piano - Gitarre - Kontrabass) die Eleganz der Klassik (Querflöte) und den rauen Charme des Jazz (Saxophon) hinzufügte.
Ihr Repertoire umfasst Tango von den traditionellen Ursprüngen des Tanzes bis hin zu den Meisterwerken eines Astor Piazzolla - aber auch Filmmusikkomponisten wie Henry Mancini, Yann Tiersen, der zeitgenössische englische Komponist Graham Lynch und eigene Kompostionen haben ihren Platz im Programm von Las Sombras.
In ihren musikalischen Arrangements verschmelzen klassische Virtuosität und südamerikanisches Temperament. Ihr kraftvoller und feuriger Tango, der nicht nur mit dem Jazz flirtet, ließen Las Sombras vom Geheimtipp der Tangoszene schnell zum gerngesehenen Gast in zahlreichen Veranstaltungsreihen avancieren.
 
Об альбоме (сборнике)
Wer hin und wieder vom größten Glück träumt und auch kleineren Abenteuern nicht abgeneigt ist, für dessen verwöhnte Ohren wird das neue Album CASINO TANGO NOIR von Las Sombras ein prickelndes Vergnügen sein. Mit kunstfertiger Hand und sicherem Gespür für fesselnde Melodien setzt das Quintett in seinem zweiten Album alles auf eine Karte: auf Leidenschaft! Denn Tango und Roulette teilen sich ein Geheimnis – das ewige Spiel um Schicksal und Leidenschaft.
Verspielte Walzer, kubanische Rhythmen, Filmmusik und Bossa Nova finden auf der Produktion gleichwohl neben altbekannten und neukomponierten Titeln ihren Platz.
Nach ihrem erfolgreichen und vielbeachteten CD-Debüt gelingt Las Sombras mit CASINO TANGO NOIR einmal mehr ein Schmuckstück einer unterschätzten Kunst – dem Erzählen von Geschichten ganz ohne Worte. Der große Augenblick oder die dunkelste Stunde? Was bleibt ist eine zauberhafte Melodie im Schatten der Nacht. Wenn die Kugel rollt, bleibt die Zeit stehen und das Schicksal tanzt Tango mit Dir. Rien ne va plus! In der Musik von Las Sombras spürt man stets die Freiheitsliebe des Tangos: klassische Virtuosität verschmilzt mit südamerikanischem Temperament. Der Tango von Las Sombras flirtet mit Jazz, Klassik und Weltmusik. Kleinere Abenteuer nicht ausgeschlossen.
 
Состав
Simone Graf – flute (Harry Gosse flute № 117), vibrandoneon (VICTORIA vibrandoneon Speziale)
Florian Gutmann – saxophone
Florian Schmid – guitar, mandolin
Bernhard Sinz – piano, accordion
Ralf Zeranski – double bass
guests:
Klaudiusz Zylinski – percussion, vibraphone, bells
Mika Tamura-Winklmeieri – violoncello
15:51
327
Нет комментариев. Ваш будет первым!