Поиск

(Tango Nuevo, Gypsy, Chamber, Klezmer) 3 Leg Torso - Animal & Cannibals - 2010, FLAC (tracks+.cue), lossless

(Tango Nuevo, Gypsy, Chamber, Klezmer) 3 Leg Torso - Animal & Cannibals - 2010, FLAC (tracks+.cue), lossless
Треклист:
3 Leg Torso / Animal & Cannibals
Жанр: Tango Nuevo, Gypsy, Chamber, Klezmer
Год издания: 2010
Издатель (лейбл): Meester
Номер по каталогу: MEE005
Страна: USA
Аудиокодек: FLAC (*.flac)
Тип рипа: tracks+.cue
Битрейт аудио: lossless
Продолжительность: 0:49:48
Источник (релизер): mirage08
Наличие сканов в содержимом раздачи: нет
Треклист:
01. Akiko Yano (5:25)
02. Csárdás (4:29)
03. The Life and Times and Good Deeds of St. Penguin (5:29)
04. Toothless Cannibal (5:53)
05. Driving along with My Cow in My Volga (3:32)
06. According to Chagall (5:30)
07. Bus Stop to Oblivion (6:24)
08. Frailach #1 (6:39)
09. Autumn (3:14)
10. The Last Dream (3:14)
 
XLD log
X Lossless Decoder version 20101010 (123.3)
XLD extraction logfile from 2010-10-21 03:50:54 -0500
3 Leg Torso / Animals & Cannibals
Used drive : MATSHITA DVD-R UJ-868 (revision KB19)
Use cdparanoia mode : YES (CDParanoia III 10.2 engine)
Disable audio cache : OK for the drive with cache less than 2750KB
Make use of C2 pointers : NO
Read offset correction : 102
Max retry count : 100
Gap status : Analyzed, Appended
TOC of the extracted CD
Track | Start | Length | Start sector | End sector
---------------------------------------------------------
1 | 00:00:00 | 05:24:57 | 0 | 24356
2 | 05:24:57 | 04:28:45 | 24357 | 44501
3 | 09:53:27 | 05:29:03 | 44502 | 69179
4 | 15:22:30 | 05:52:69 | 69180 | 95648
5 | 21:15:24 | 03:31:49 | 95649 | 111522
6 | 24:46:73 | 05:29:65 | 111523 | 136262
7 | 30:16:63 | 06:24:03 | 136263 | 165065
8 | 36:40:66 | 06:38:41 | 165066 | 194956
9 | 43:19:32 | 03:14:02 | 194957 | 209508
10 | 46:33:34 | 03:14:16 | 209509 | 224074
All Tracks
Album gain : -4.08 dB
Peak : 0.988678
Track 01
Filename : /Users/Austin/Desktop/01 3 Leg Torso - Akiko Yano.flac
Pre-gap length : 00:02:00
Track gain : -4.49 dB
Peak : 0.988678
CRC32 hash (test run) : 810AE0D3
CRC32 hash : 810AE0D3
CRC32 hash (skip zero) : 79DC75E7
AccurateRip signature : 93A28604
->Track not present in AccurateRip database.
Statistics
Read error : 0
Skipped (treated as error) : 0
Edge jitter error (maybe fixed) : 0
Atom jitter error (maybe fixed) : 0
Drift error (maybe fixed) : 0
Dropped bytes error (maybe fixed) : 0
Duplicated bytes error (maybe fixed) : 0
Inconsistency in error sectors : 0
Track 02
Filename : /Users/Austin/Desktop/02 3 Leg Torso - CsГЎrdГЎs.flac
Track gain : -3.35 dB
Peak : 0.988678
CRC32 hash (test run) : 3BADDAA8
CRC32 hash : 3BADDAA8
CRC32 hash (skip zero) : 0F1BCD85
AccurateRip signature : 37D10DC4
->Track not present in AccurateRip database.
Statistics
Read error : 0
Skipped (treated as error) : 0
Edge jitter error (maybe fixed) : 0
Atom jitter error (maybe fixed) : 0
Drift error (maybe fixed) : 0
Dropped bytes error (maybe fixed) : 0
Duplicated bytes error (maybe fixed) : 0
Inconsistency in error sectors : 0
Track 03
Filename : /Users/Austin/Desktop/03 3 Leg Torso - The Life and Times and Good Deeds of St. Penguin.flac
Pre-gap length : 00:01:14
Track gain : -3.28 dB
Peak : 0.986572
CRC32 hash (test run) : 0E0BAD56
CRC32 hash : 0E0BAD56
CRC32 hash (skip zero) : EBB240DA
AccurateRip signature : 4CB7BF65
->Track not present in AccurateRip database.
Statistics
Read error : 0
Skipped (treated as error) : 0
Edge jitter error (maybe fixed) : 0
Atom jitter error (maybe fixed) : 0
Drift error (maybe fixed) : 0
Dropped bytes error (maybe fixed) : 0
Duplicated bytes error (maybe fixed) : 0
Inconsistency in error sectors : 0
Track 04
Filename : /Users/Austin/Desktop/04 3 Leg Torso - Toothless Cannibal.flac
Track gain : -3.17 dB
Peak : 0.988647
CRC32 hash (test run) : ED17EB3A
CRC32 hash : ED17EB3A
CRC32 hash (skip zero) : B5C067A7
AccurateRip signature : 347E25B9
->Track not present in AccurateRip database.
Statistics
Read error : 0
Skipped (treated as error) : 0
Edge jitter error (maybe fixed) : 0
Atom jitter error (maybe fixed) : 0
Drift error (maybe fixed) : 0
Dropped bytes error (maybe fixed) : 0
Duplicated bytes error (maybe fixed) : 0
Inconsistency in error sectors : 0
Track 05
Filename : /Users/Austin/Desktop/05 3 Leg Torso - Driving along with My Cow in My Volga.flac
Track gain : -4.32 dB
Peak : 0.988617
CRC32 hash (test run) : 920A18E5
CRC32 hash : 920A18E5
CRC32 hash (skip zero) : BF94785D
AccurateRip signature : F5BCFD9D
->Track not present in AccurateRip database.
Statistics
Read error : 0
Skipped (treated as error) : 0
Edge jitter error (maybe fixed) : 0
Atom jitter error (maybe fixed) : 0
Drift error (maybe fixed) : 0
Dropped bytes error (maybe fixed) : 0
Duplicated bytes error (maybe fixed) : 0
Inconsistency in error sectors : 0
Track 06
Filename : /Users/Austin/Desktop/06 3 Leg Torso - According to Chagall.flac
Track gain : -3.99 dB
Peak : 0.988556
CRC32 hash (test run) : D331DE1C
CRC32 hash : D331DE1C
CRC32 hash (skip zero) : 6D0D5F22
AccurateRip signature : A13C52AC
->Track not present in AccurateRip database.
Statistics
Read error : 0
Skipped (treated as error) : 0
Edge jitter error (maybe fixed) : 0
Atom jitter error (maybe fixed) : 0
Drift error (maybe fixed) : 0
Dropped bytes error (maybe fixed) : 0
Duplicated bytes error (maybe fixed) : 0
Inconsistency in error sectors : 0
Track 07
Filename : /Users/Austin/Desktop/07 3 Leg Torso - Bus Stop to Oblivion.flac
Track gain : -3.83 dB
Peak : 0.988647
CRC32 hash (test run) : C1270ACD
CRC32 hash : C1270ACD
CRC32 hash (skip zero) : EF42CA18
AccurateRip signature : 381AA34C
->Track not present in AccurateRip database.
Statistics
Read error : 0
Skipped (treated as error) : 0
Edge jitter error (maybe fixed) : 0
Atom jitter error (maybe fixed) : 0
Drift error (maybe fixed) : 0
Dropped bytes error (maybe fixed) : 0
Duplicated bytes error (maybe fixed) : 0
Inconsistency in error sectors : 0
Track 08
Filename : /Users/Austin/Desktop/08 3 Leg Torso - Frailach #1.flac
Track gain : -4.15 dB
Peak : 0.988647
CRC32 hash (test run) : 6CAE5C07
CRC32 hash : 6CAE5C07
CRC32 hash (skip zero) : 98A358B2
AccurateRip signature : 2935F334
->Track not present in AccurateRip database.
Statistics
Read error : 0
Skipped (treated as error) : 0
Edge jitter error (maybe fixed) : 0
Atom jitter error (maybe fixed) : 0
Drift error (maybe fixed) : 0
Dropped bytes error (maybe fixed) : 0
Duplicated bytes error (maybe fixed) : 0
Inconsistency in error sectors : 0
Track 09
Filename : /Users/Austin/Desktop/09 3 Leg Torso - Autumn.flac
Track gain : -3.05 dB
Peak : 0.988556
CRC32 hash (test run) : 2F324F99
CRC32 hash : 2F324F99
CRC32 hash (skip zero) : F104E9E5
AccurateRip signature : EFF2463B
->Track not present in AccurateRip database.
Statistics
Read error : 0
Skipped (treated as error) : 0
Edge jitter error (maybe fixed) : 0
Atom jitter error (maybe fixed) : 0
Drift error (maybe fixed) : 0
Dropped bytes error (maybe fixed) : 0
Duplicated bytes error (maybe fixed) : 0
Inconsistency in error sectors : 0
Track 10
Filename : /Users/Austin/Desktop/10 3 Leg Torso - The Last Dream.flac
Track gain : -6.56 dB
Peak : 0.988617
CRC32 hash (test run) : 3DD8D013
CRC32 hash : 3DD8D013
CRC32 hash (skip zero) : 0D795BAA
AccurateRip signature : 6B366D68
->Track not present in AccurateRip database.
Statistics
Read error : 0
Skipped (treated as error) : 0
Edge jitter error (maybe fixed) : 0
Atom jitter error (maybe fixed) : 0
Drift error (maybe fixed) : 0
Dropped bytes error (maybe fixed) : 0
Duplicated bytes error (maybe fixed) : 0
Inconsistency in error sectors : 0
No errors occurred
End of status report
 
auCDtect's log
-----------------------
DON'T MODIFY THIS FILE
-----------------------
PERFORMER: auCDtect Task Manager, ver. 1.5.1RC3 build 1.5.1.4
Copyright (c) 2008-2010 y-soft. All rights reserved
http://y-soft.org
ANALYZER: auCDtect: CD records authenticity detector, version 0.8.2
Copyright (c) 2004 Oleg Berngardt. All rights reserved.
Copyright (c) 2004 Alexander Djourik. All rights reserved.
FILE: 10 3 Leg Torso - The Last Dream.flac
Size: 16483352 Hash: 067391A3FDE021AF7B6EB9AD99106934 Accuracy: -m0
Conclusion: CDDA 100%
Signature: 98EE63C9CFA272B3FCCF800284107E9B8FB8FC9A
FILE: 09 3 Leg Torso - Autumn.flac
Size: 13851112 Hash: 3ED74388F62A80DCE1DAB2F5895573B2 Accuracy: -m0
Conclusion: CDDA 100%
Signature: DFE8AD9E3CFA17008220FE12D9F31DAFEBAF23B2
FILE: 08 3 Leg Torso - Frailach #1.flac
Size: 41153855 Hash: D94723B840DA004204D24DB6A71D481F Accuracy: -m0
Conclusion: CDDA 100%
Signature: 325807F8C9D4AB081C996E76838D7EF3E177EE9F
FILE: 07 3 Leg Torso - Bus Stop to Oblivion.flac
Size: 42163778 Hash: 64B00009286265830806169254CA4C53 Accuracy: -m0
Conclusion: CDDA 100%
Signature: 5324B239B764D741C70AA838077BEEFC43F9926F
FILE: 06 3 Leg Torso - According to Chagall.flac
Size: 31179764 Hash: 56EC9A56A5AF281B78BF2D2F91ADB87B Accuracy: -m0
Conclusion: CDDA 100%
Signature: EA79485E217ADDF383AC729173EC836D0D91DA9A
FILE: 05 3 Leg Torso - Driving along with My Cow in My Volga.flac
Size: 19145142 Hash: 3D05B26526803FB9D120E59A876920D4 Accuracy: -m0
Conclusion: CDDA 100%
Signature: 0365476E7ED7A3D47793D138F3BBF40A396E0B31
FILE: 04 3 Leg Torso - Toothless Cannibal.flac
Size: 36991357 Hash: E7C83A7EAAFA624BD85F1119B6D7C9EC Accuracy: -m0
Conclusion: CDDA 100%
Signature: 9746EA50A02C9711F310003676296A714470C41C
FILE: 03 3 Leg Torso - The Life and Times and Good Deeds of St. Penguin.flac
Size: 30131927 Hash: 3CB4C6C0716632578D4FC6FF310347F0 Accuracy: -m0
Conclusion: CDDA 100%
Signature: DA4B1784BBE26AA76E4505179FC65707867FFBD6
FILE: 02 3 Leg Torso - Csárdás.flac
Size: 27476268 Hash: 8B21239390832C7A775104EC37B8372E Accuracy: -m0
Conclusion: CDDA 100%
Signature: 836213A5B895547005D847BE132C0AA72F806D92
FILE: 01 3 Leg Torso - Akiko Yano.flac
Size: 32876683 Hash: C6C47F7A9771C2D5FB3777F74C977915 Accuracy: -m0
Conclusion: CDDA 100%
Signature: 46786321C708A683B07F33E11E8BB22FCE9A87E8
 
.cue
TITLE "Animals & Cannibals"
PERFORMER "3 Leg Torso"
REM GENRE "Traditional"
REM DATE 2010
REM DISCNUMBER 1
REM TOTALDISCS 1
REM DISCID 8D0BAB0A
REM REPLAYGAIN_ALBUM_GAIN -4.08 dB
REM REPLAYGAIN_ALBUM_PEAK 0.988678
FILE "01 3 Leg Torso - Akiko Yano.wav" WAVE
TRACK 01 AUDIO
TITLE "Akiko Yano"
SONGWRITER "Courtney Von Drehle"
ISRC US2WU1001842
REM REPLAYGAIN_TRACK_GAIN -4.49 dB
REM REPLAYGAIN_TRACK_PEAK 0.988678
INDEX 01 00:00:00
FILE "02 3 Leg Torso - CsГЎrdГЎs.wav" WAVE
TRACK 02 AUDIO
TITLE "CsГЎrdГЎs"
SONGWRITER "Vittorio Monti"
ISRC US2WU1001843
REM REPLAYGAIN_TRACK_GAIN -3.35 dB
REM REPLAYGAIN_TRACK_PEAK 0.988678
INDEX 01 00:00:00
TRACK 03 AUDIO
TITLE "The Life and Times and Good Deeds of St. Penguin"
SONGWRITER "Von Drehle/BГ©la R. Balogh"
ISRC US2WU1001844
REM REPLAYGAIN_TRACK_GAIN -3.28 dB
REM REPLAYGAIN_TRACK_PEAK 0.986572
INDEX 00 04:27:31
FILE "03 3 Leg Torso - The Life and Times and Good Deeds of St. Penguin.wav" WAVE
INDEX 01 00:00:00
FILE "04 3 Leg Torso - Toothless Cannibal.wav" WAVE
TRACK 04 AUDIO
TITLE "Toothless Cannibal"
SONGWRITER "Courtney Von Drehle"
ISRC US2WU1001845
REM REPLAYGAIN_TRACK_GAIN -3.17 dB
REM REPLAYGAIN_TRACK_PEAK 0.988647
INDEX 01 00:00:00
FILE "05 3 Leg Torso - Driving along with My Cow in My Volga.wav" WAVE
TRACK 05 AUDIO
TITLE "Driving along with My Cow in My Volga"
SONGWRITER "BГ©la R. Balogh"
ISRC US2WU1001846
REM REPLAYGAIN_TRACK_GAIN -4.32 dB
REM REPLAYGAIN_TRACK_PEAK 0.988617
INDEX 01 00:00:00
FILE "06 3 Leg Torso - According to Chagall.wav" WAVE
TRACK 06 AUDIO
TITLE "According to Chagall"
SONGWRITER "Courtney Von Drehle"
ISRC US2WU1001847
REM REPLAYGAIN_TRACK_GAIN -3.99 dB
REM REPLAYGAIN_TRACK_PEAK 0.988556
INDEX 01 00:00:00
FILE "07 3 Leg Torso - Bus Stop to Oblivion.wav" WAVE
TRACK 07 AUDIO
TITLE "Bus Stop to Oblivion"
SONGWRITER "Courtney Von Drehle"
ISRC US2WU1001848
REM REPLAYGAIN_TRACK_GAIN -3.83 dB
REM REPLAYGAIN_TRACK_PEAK 0.988647
INDEX 01 00:00:00
FILE "08 3 Leg Torso - Frailach #1.wav" WAVE
TRACK 08 AUDIO
TITLE "Frailach #1"
SONGWRITER "Traditional ARRanged By 3 Leg Torso"
ISRC US2WU1001849
REM REPLAYGAIN_TRACK_GAIN -4.15 dB
REM REPLAYGAIN_TRACK_PEAK 0.988647
INDEX 01 00:00:00
FILE "09 3 Leg Torso - Autumn.wav" WAVE
TRACK 09 AUDIO
TITLE "Autumn"
SONGWRITER "BГ©la R. Balogh"
ISRC US2WU1001850
REM REPLAYGAIN_TRACK_GAIN -3.05 dB
REM REPLAYGAIN_TRACK_PEAK 0.988556
INDEX 01 00:00:00
FILE "10 3 Leg Torso - The Last Dream.wav" WAVE
TRACK 10 AUDIO
TITLE "The Last Dream"
SONGWRITER "BГ©la R. Balogh"
ISRC US2WU1001851
REM REPLAYGAIN_TRACK_GAIN -6.56 dB
REM REPLAYGAIN_TRACK_PEAK 0.988617
INDEX 01 00:00:00
 
Об альбоме (сборнике)
"sounds like... a chamber ensemble co-led by Astor Piazolla and Tom Waits"
04:29
330
Нет комментариев. Ваш будет первым!